<?xml version="1.0" standalone="no"?>
<!DOCTYPE svg PUBLIC "-//W3C//DTD SVG 1.1//EN" "http://www.w3.org/Graphics/SVG/1.1/DTD/svg11.dtd" >
<svg xmlns="http://www.w3.org/2000/svg" xmlns:xlink="http://www.w3.org/1999/xlink" version="1.1">
<metadata>
Created by FontForge 20201107 at Wed Jan 11 18:14:54 2023
 By Unknown
Copyright 2019 The Sofia Sans Project Authors (https://github.com/lettersoup/Sofia-Sans)
</metadata>
<defs>
<font id="SofiaSans-Bold" horiz-adv-x="0" >
  <font-face 
    font-family="Sofia Sans"
    font-weight="700"
    font-stretch="normal"
    units-per-em="1000"
    panose-1="0 0 0 0 0 0 0 0 0 0"
    ascent="800"
    descent="-200"
    x-height="492"
    cap-height="655"
    bbox="-147.471 -254.5 1301 915"
    underline-thickness="50"
    underline-position="-125"
    unicode-range="U+000D-FB02"
  />
<missing-glyph horiz-adv-x="576" 
d="M105 0q-5 0 -8.5 3.5t-3.5 8.5v650q0 5 3.5 8t8.5 3h366q5 0 8 -3t3 -8v-650q0 -5 -3 -8.5t-8 -3.5h-366zM183 90h209v493h-209v-493z" />
    <glyph glyph-name="f_f" unicode="ff" horiz-adv-x="768" 
d="M114 0q-5 0 -8.5 3.5t-3.5 8.5v381h-74q-4 0 -7.5 3.5t-3.5 8.5v75q0 6 3.5 9t7.5 3h74v42q0 79 45 120t127 41q30 0 58 -4.5t45 -10.5q16 -5 16 -16v-72q0 -7 -4.5 -9.5t-16.5 2.5q-16 6 -37 10t-40 4q-38 0 -56.5 -18t-18.5 -53v-36h129q12 0 12 -12v-75q0 -5 -3 -8.5
t-9 -3.5h-129v-381q0 -5 -3 -8.5t-9 -3.5h-94zM501 0q-5 0 -8.5 3.5t-3.5 8.5v381h-74q-4 0 -7.5 3.5t-3.5 8.5v75q0 6 3.5 9t7.5 3h74v42q0 79 45 120t127 41q30 0 58 -4.5t45 -10.5q16 -5 16 -16v-72q0 -7 -4.5 -9.5t-16.5 2.5q-16 6 -37 10t-40 4q-38 0 -56.5 -18
t-18.5 -53v-36h129q12 0 12 -12v-75q0 -5 -3 -8.5t-9 -3.5h-129v-381q0 -5 -3 -8.5t-9 -3.5h-94z" />
    <glyph glyph-name="f_i" unicode="fi" horiz-adv-x="581" 
d="M114 0q-5 0 -8.5 3.5t-3.5 8.5v381h-74q-4 0 -7.5 3.5t-3.5 8.5v75q0 6 3.5 9t7.5 3h74v38q0 84 45.5 124.5t139.5 40.5q31 0 64 -3.5t53 -8.5q10 -1 10 -12v-72q0 -13 -14 -10q-24 5 -48.5 8.5t-48.5 3.5q-42 0 -62.5 -16t-20.5 -50v-43h286q11 0 11 -12v-468
q0 -12 -11 -12h-95q-12 0 -12 12v381h-179v-381q0 -5 -3 -8.5t-9 -3.5h-94z" />
    <glyph glyph-name="f_l" unicode="fl" horiz-adv-x="581" 
d="M114 0q-5 0 -8.5 3.5t-3.5 8.5v381h-74q-4 0 -7.5 3.5t-3.5 8.5v75q0 6 3.5 9t7.5 3h74v38q0 87 47 126t138 39q39 0 73.5 -5.5t55.5 -9.5l89 3q12 0 12 -12v-659q0 -12 -12 -12h-94q-12 0 -12 12v579q-22 3 -47.5 6.5t-48.5 3.5q-41 0 -62 -16t-21 -50v-43h84q5 0 8 -3
t3 -9v-75q0 -5 -3 -8.5t-8 -3.5h-84v-381q0 -5 -3 -8.5t-9 -3.5h-94z" />
    <glyph glyph-name=".notdef" horiz-adv-x="576" 
d="M105 0q-5 0 -8.5 3.5t-3.5 8.5v650q0 5 3.5 8t8.5 3h366q5 0 8 -3t3 -8v-650q0 -5 -3 -8.5t-8 -3.5h-366zM183 90h209v493h-209v-493z" />
    <glyph glyph-name="A" unicode="A" horiz-adv-x="587" 
d="M9 0q-13 0 -10 13l216 633q3 9 13 9h128q11 0 14 -9l217 -633q4 -13 -9 -13h-106q-10 0 -13 9l-129 411q-10 33 -19.5 65.5t-18.5 65.5h-2q-9 -32 -18.5 -64.5t-19.5 -64.5l-126 -412q-3 -10 -14 -10h-103zM146 137l23 98h243l24 -98h-290z" />
    <glyph glyph-name="Aacute" unicode="&#xc1;" horiz-adv-x="587" 
d="M9 0q-13 0 -10 13l216 633q3 9 13 9h128q11 0 14 -9l217 -633q4 -13 -9 -13h-106q-10 0 -13 9l-129 411q-10 33 -19.5 65.5t-18.5 65.5h-2q-9 -32 -18.5 -64.5t-19.5 -64.5l-126 -412q-3 -10 -14 -10h-103zM146 137l23 98h243l24 -98h-290zM229 709q-6 0 -7 3.5t1 7.5
l59 109q4 8 13 8h91q6 0 7.5 -4t-1.5 -9l-80 -109q-4 -6 -13 -6h-70z" />
    <glyph glyph-name="Abreve" unicode="&#x102;" horiz-adv-x="587" 
d="M9 0q-13 0 -10 13l216 633q3 9 13 9h128q11 0 14 -9l217 -633q4 -13 -9 -13h-106q-10 0 -13 9l-129 411q-10 33 -19.5 65.5t-18.5 65.5h-2q-9 -32 -18.5 -64.5t-19.5 -64.5l-126 -412q-3 -10 -14 -10h-103zM146 137l23 98h243l24 -98h-290zM293 711q-46 0 -84.5 17
t-53.5 30q-5 4 -5 13v66q0 8 3.5 10t9.5 -2q20 -14 55.5 -30.5t74.5 -16.5q38 0 73.5 16.5t55.5 30.5q6 4 9.5 2t3.5 -10v-66q0 -9 -5 -13q-15 -13 -53 -30t-84 -17z" />
    <glyph glyph-name="Acircumflex" unicode="&#xc2;" horiz-adv-x="587" 
d="M9 0q-13 0 -10 13l216 633q3 9 13 9h128q11 0 14 -9l217 -633q4 -13 -9 -13h-106q-10 0 -13 9l-129 411q-10 33 -19.5 65.5t-18.5 65.5h-2q-9 -32 -18.5 -64.5t-19.5 -64.5l-126 -412q-3 -10 -14 -10h-103zM146 137l23 98h243l24 -98h-290zM160 714q-12 -5 -12 7v63
q0 9 8 12l128 59q9 4 17 0l128 -59q8 -3 8 -12v-63q0 -12 -12 -7l-132 50z" />
    <glyph glyph-name="Adieresis" unicode="&#xc4;" horiz-adv-x="587" 
d="M9 0q-13 0 -10 13l216 633q3 9 13 9h128q11 0 14 -9l217 -633q4 -13 -9 -13h-106q-10 0 -13 9l-129 411q-10 33 -19.5 65.5t-18.5 65.5h-2q-9 -32 -18.5 -64.5t-19.5 -64.5l-126 -412q-3 -10 -14 -10h-103zM146 137l23 98h243l24 -98h-290zM199 709q-32 0 -47.5 16.5
t-15.5 43.5v14q0 28 15.5 43.5t47.5 15.5q33 0 48.5 -15.5t15.5 -43.5v-14q0 -27 -15.5 -43.5t-48.5 -16.5zM386 709q-32 0 -47.5 16.5t-15.5 43.5v14q0 28 15.5 43.5t47.5 15.5t47.5 -15.5t15.5 -43.5v-14q0 -27 -15.5 -43.5t-47.5 -16.5z" />
    <glyph glyph-name="Agrave" unicode="&#xc0;" horiz-adv-x="587" 
d="M9 0q-13 0 -10 13l216 633q3 9 13 9h128q11 0 14 -9l217 -633q4 -13 -9 -13h-106q-10 0 -13 9l-129 411q-10 33 -19.5 65.5t-18.5 65.5h-2q-9 -32 -18.5 -64.5t-19.5 -64.5l-126 -412q-3 -10 -14 -10h-103zM146 137l23 98h243l24 -98h-290zM283 709q-8 0 -13 6l-79 109
q-4 5 -2.5 9t7.5 4h92q9 0 13 -8l58 -109q3 -4 1.5 -7.5t-7.5 -3.5h-70z" />
    <glyph glyph-name="Amacron" unicode="&#x100;" horiz-adv-x="587" 
d="M9 0q-13 0 -10 13l216 633q3 9 13 9h128q11 0 14 -9l217 -633q4 -13 -9 -13h-106q-10 0 -13 9l-129 411q-10 33 -19.5 65.5t-18.5 65.5h-2q-9 -32 -18.5 -64.5t-19.5 -64.5l-126 -412q-3 -10 -14 -10h-103zM146 137l23 98h243l24 -98h-290zM178 716q-12 0 -12 12v66
q0 12 12 12h229q12 0 12 -12v-66q0 -12 -12 -12h-229z" />
    <glyph glyph-name="Aogonek" unicode="&#x104;" horiz-adv-x="587" 
d="M9 0q-13 0 -10 13l216 633q3 9 13 9h128q11 0 14 -9l217 -633q4 -13 -9 -13h-106q-10 0 -13 9l-129 411q-10 33 -19.5 65.5t-18.5 65.5h-2q-9 -32 -18.5 -64.5t-19.5 -64.5l-126 -412q-3 -10 -14 -10h-103zM146 137l23 98h243l24 -98h-290zM525 -197q-51 0 -78 23t-27 60
v11q0 45 35 78.5t98 50.5l17 -13v-11q-28 -12 -43 -32t-15 -43v-8q0 -30 37 -30q8 0 14.5 0.5t13.5 1.5q10 2 10 -8v-64q0 -5 -2 -7t-8 -4q-12 -2 -26 -3.5t-26 -1.5z" />
    <glyph glyph-name="Aring" unicode="&#xc5;" horiz-adv-x="587" 
d="M587 13q4 -13 -9 -13h-106q-10 0 -13 9l-40 128h-254l-39 -127q-3 -10 -14 -10h-103q-13 0 -10 13l206 606q-15 12 -24 31t-9 43q0 52 32.5 79t89.5 27q55 0 88 -27t33 -79q0 -25 -9 -44t-27 -31zM248 692q0 -20 11 -33t35 -13t34.5 13t10.5 33q0 21 -10.5 33.5
t-34.5 12.5t-35 -12.5t-11 -33.5zM194 235h195l-59 185q-10 33 -19.5 66.5t-18.5 66.5h-2q-9 -32 -18.5 -65.5t-19.5 -65.5z" />
    <glyph glyph-name="Atilde" unicode="&#xc3;" horiz-adv-x="587" 
d="M9 0q-13 0 -10 13l216 633q3 9 13 9h128q11 0 14 -9l217 -633q4 -13 -9 -13h-106q-10 0 -13 9l-129 411q-10 33 -19.5 65.5t-18.5 65.5h-2q-9 -32 -18.5 -64.5t-19.5 -64.5l-126 -412q-3 -10 -14 -10h-103zM146 137l23 98h243l24 -98h-290zM349 718q-22 0 -40 7t-35 13.5
t-38 6.5t-40.5 -6.5t-32.5 -13.5q-14 -7 -14 8v58q0 10 7 15q12 7 33 17t49 10t46 -6.5t33.5 -14t34.5 -7.5q20 0 40 6.5t32 13.5q14 8 14 -7v-58q0 -9 -7 -15q-11 -9 -32.5 -18t-49.5 -9z" />
    <glyph glyph-name="AE" unicode="&#xc6;" horiz-adv-x="847" 
d="M9 0q-6 0 -9 4t0 10l299 632q4 9 14 9h461q12 0 12 -12v-82q0 -12 -12 -12h-274v-167h250q12 0 12 -12v-77q0 -12 -12 -12h-250v-175h274q12 0 12 -12v-82q0 -12 -12 -12h-380q-12 0 -12 12v125h-194l-60 -128q-4 -9 -14 -9h-105zM230 235h152v224v52v57h-2
q-10 -28 -21 -54.5t-22 -53.5z" />
    <glyph glyph-name="B" unicode="B" horiz-adv-x="588" 
d="M85 0q-11 0 -11 12v631q0 12 11 12h199q118 0 177.5 -40t59.5 -122q0 -57 -25.5 -91t-82.5 -54v-3q67 -12 101.5 -51.5t34.5 -106.5q0 -98 -63 -142.5t-202 -44.5h-199zM194 100h93q76 0 109 21.5t33 72.5q0 50 -33.5 73t-107.5 23h-94v-190zM194 381h87q63 0 91.5 22
t28.5 68q0 45 -30 65t-98 20h-79v-175z" />
    <glyph glyph-name="C" unicode="C" horiz-adv-x="643" 
d="M324 -12q-127 0 -194.5 62.5t-67.5 184.5v184q0 123 68 185.5t194 62.5q86 0 148 -28t92 -80t20 -123q-1 -5 -3.5 -9.5t-8.5 -4.5h-97q-12 0 -11 12q2 61 -32.5 94.5t-105.5 33.5q-69 0 -106.5 -36t-37.5 -109v-179q0 -73 37.5 -109t106.5 -36q73 0 108 34.5t30 93.5
q-1 12 11 12h96q11 0 13 -14q7 -70 -23.5 -122t-91 -80.5t-145.5 -28.5z" />
    <glyph glyph-name="Cacute" unicode="&#x106;" horiz-adv-x="643" 
d="M324 -12q-127 0 -194.5 62.5t-67.5 184.5v184q0 123 68 185.5t194 62.5q86 0 148 -28t92 -80t20 -123q-1 -5 -3.5 -9.5t-8.5 -4.5h-97q-12 0 -11 12q2 61 -32.5 94.5t-105.5 33.5q-69 0 -106.5 -36t-37.5 -109v-179q0 -73 37.5 -109t106.5 -36q73 0 108 34.5t30 93.5
q-1 12 11 12h96q11 0 13 -14q7 -70 -23.5 -122t-91 -80.5t-145.5 -28.5zM258 709q-6 0 -7 3.5t1 7.5l59 109q4 8 13 8h91q6 0 7.5 -4t-1.5 -9l-80 -109q-4 -6 -13 -6h-70z" />
    <glyph glyph-name="Ccaron" unicode="&#x10c;" horiz-adv-x="643" 
d="M324 -12q-127 0 -194.5 62.5t-67.5 184.5v184q0 123 68 185.5t194 62.5q86 0 148 -28t92 -80t20 -123q-1 -5 -3.5 -9.5t-8.5 -4.5h-97q-12 0 -11 12q2 61 -32.5 94.5t-105.5 33.5q-69 0 -106.5 -36t-37.5 -109v-179q0 -73 37.5 -109t106.5 -36q73 0 108 34.5t30 93.5
q-1 12 11 12h96q11 0 13 -14q7 -70 -23.5 -122t-91 -80.5t-145.5 -28.5zM314 715l-128 58q-8 4 -8 12v64q0 12 12 6l133 -50l132 50q12 6 12 -6v-64q0 -8 -8 -12l-128 -58q-8 -4 -17 0z" />
    <glyph glyph-name="Ccedilla" unicode="&#xc7;" horiz-adv-x="643" 
d="M324 -12q-127 0 -194.5 62.5t-67.5 184.5v184q0 123 68 185.5t194 62.5q86 0 148 -28t92 -80t20 -123q-1 -5 -3.5 -9.5t-8.5 -4.5h-97q-12 0 -11 12q2 61 -32.5 94.5t-105.5 33.5q-69 0 -106.5 -36t-37.5 -109v-179q0 -73 37.5 -109t106.5 -36q73 0 108 34.5t30 93.5
q-1 12 11 12h96q11 0 13 -14q7 -70 -23.5 -122t-91 -80.5t-145.5 -28.5zM315 -197q-14 0 -26 1t-24 3q-9 2 -9 10v46q0 10 9 9q6 -1 14.5 -1.5t14.5 -0.5q21 0 30 6t9 16v10q0 14 -8 19t-24 5h-23q-7 0 -7 7q0 5 0.5 11t1.5 10l25 78q2 7 10 7h63q10 0 6 -12l-21 -63h9
q27 0 42 -17t15 -46v-16q0 -40 -26 -61t-81 -21z" />
    <glyph glyph-name="Cdotaccent" unicode="&#x10a;" horiz-adv-x="643" 
d="M324 -12q-127 0 -194.5 62.5t-67.5 184.5v184q0 123 68 185.5t194 62.5q86 0 148 -28t92 -80t20 -123q-1 -5 -3.5 -9.5t-8.5 -4.5h-97q-12 0 -11 12q2 61 -32.5 94.5t-105.5 33.5q-69 0 -106.5 -36t-37.5 -109v-179q0 -73 37.5 -109t106.5 -36q73 0 108 34.5t30 93.5
q-1 12 11 12h96q11 0 13 -14q7 -70 -23.5 -122t-91 -80.5t-145.5 -28.5zM323 722q-34 0 -51.5 17.5t-17.5 46.5v15q0 29 17.5 46.5t51.5 17.5t51 -17.5t17 -46.5v-15q0 -29 -17 -46.5t-51 -17.5z" />
    <glyph glyph-name="D" unicode="D" horiz-adv-x="649" 
d="M85 0q-11 0 -11 12v631q0 12 11 12h202q155 0 231 -72t76 -216v-60q0 -153 -75.5 -230t-231.5 -77h-202zM194 103h85q101 0 148 50.5t47 152.5v62q0 93 -47 138.5t-148 45.5h-85v-449z" />
    <glyph glyph-name="Eth" unicode="&#xd0;" horiz-adv-x="649" 
d="M13 285q-11 0 -11 12v68q0 12 11 12h61h238q12 0 12 -12v-68q0 -12 -12 -12h-299zM85 0q-11 0 -11 12v631q0 12 11 12h202q155 0 231 -72t76 -216v-60q0 -153 -75.5 -230t-231.5 -77h-202zM194 103h85q101 0 148 50.5t47 152.5v62q0 93 -47 138.5t-148 45.5h-85v-449z
" />
    <glyph glyph-name="Dcaron" unicode="&#x10e;" horiz-adv-x="649" 
d="M85 0q-11 0 -11 12v631q0 12 11 12h202q155 0 231 -72t76 -216v-60q0 -153 -75.5 -230t-231.5 -77h-202zM194 103h85q101 0 148 50.5t47 152.5v62q0 93 -47 138.5t-148 45.5h-85v-449zM288 715l-128 58q-8 4 -8 12v64q0 12 12 6l133 -50l132 50q12 6 12 -6v-64
q0 -8 -8 -12l-128 -58q-8 -4 -17 0z" />
    <glyph glyph-name="Dcroat" unicode="&#x110;" horiz-adv-x="649" 
d="M13 285q-11 0 -11 12v68q0 12 11 12h61h238q12 0 12 -12v-68q0 -12 -12 -12h-299zM85 0q-11 0 -11 12v631q0 12 11 12h202q155 0 231 -72t76 -216v-60q0 -153 -75.5 -230t-231.5 -77h-202zM194 103h85q101 0 148 50.5t47 152.5v62q0 93 -47 138.5t-148 45.5h-85v-449z
" />
    <glyph glyph-name="E" unicode="E" horiz-adv-x="540" 
d="M85 0q-11 0 -11 12v631q0 12 11 12h383q11 0 11 -12v-82q0 -12 -11 -12h-274v-167h250q11 0 11 -12v-77q0 -12 -11 -12h-250v-175h274q11 0 11 -12v-82q0 -12 -11 -12h-383z" />
    <glyph glyph-name="Eacute" unicode="&#xc9;" horiz-adv-x="540" 
d="M85 0q-11 0 -11 12v631q0 12 11 12h383q11 0 11 -12v-82q0 -12 -11 -12h-274v-167h250q11 0 11 -12v-77q0 -12 -11 -12h-250v-175h274q11 0 11 -12v-82q0 -12 -11 -12h-383zM214 709q-6 0 -7 3.5t1 7.5l59 109q4 8 13 8h91q6 0 7.5 -4t-1.5 -9l-80 -109q-4 -6 -13 -6h-70
z" />
    <glyph glyph-name="Ecaron" unicode="&#x11a;" horiz-adv-x="540" 
d="M85 0q-11 0 -11 12v631q0 12 11 12h383q11 0 11 -12v-82q0 -12 -11 -12h-274v-167h250q11 0 11 -12v-77q0 -12 -11 -12h-250v-175h274q11 0 11 -12v-82q0 -12 -11 -12h-383zM269 715l-128 58q-8 4 -8 12v64q0 12 12 6l133 -50l132 50q12 6 12 -6v-64q0 -8 -8 -12
l-128 -58q-8 -4 -17 0z" />
    <glyph glyph-name="Ecircumflex" unicode="&#xca;" horiz-adv-x="540" 
d="M85 0q-11 0 -11 12v631q0 12 11 12h383q11 0 11 -12v-82q0 -12 -11 -12h-274v-167h250q11 0 11 -12v-77q0 -12 -11 -12h-250v-175h274q11 0 11 -12v-82q0 -12 -11 -12h-383zM145 714q-12 -5 -12 7v63q0 9 8 12l128 59q9 4 17 0l128 -59q8 -3 8 -12v-63q0 -12 -12 -7
l-132 50z" />
    <glyph glyph-name="Edieresis" unicode="&#xcb;" horiz-adv-x="540" 
d="M85 0q-11 0 -11 12v631q0 12 11 12h383q11 0 11 -12v-82q0 -12 -11 -12h-274v-167h250q11 0 11 -12v-77q0 -12 -11 -12h-250v-175h274q11 0 11 -12v-82q0 -12 -11 -12h-383zM184 709q-32 0 -47.5 16.5t-15.5 43.5v14q0 28 15.5 43.5t47.5 15.5q33 0 48.5 -15.5
t15.5 -43.5v-14q0 -27 -15.5 -43.5t-48.5 -16.5zM371 709q-32 0 -47.5 16.5t-15.5 43.5v14q0 28 15.5 43.5t47.5 15.5t47.5 -15.5t15.5 -43.5v-14q0 -27 -15.5 -43.5t-47.5 -16.5z" />
    <glyph glyph-name="Edotaccent" unicode="&#x116;" horiz-adv-x="540" 
d="M85 0q-11 0 -11 12v631q0 12 11 12h383q11 0 11 -12v-82q0 -12 -11 -12h-274v-167h250q11 0 11 -12v-77q0 -12 -11 -12h-250v-175h274q11 0 11 -12v-82q0 -12 -11 -12h-383zM278 722q-34 0 -51.5 17.5t-17.5 46.5v15q0 29 17.5 46.5t51.5 17.5t51 -17.5t17 -46.5v-15
q0 -29 -17 -46.5t-51 -17.5z" />
    <glyph glyph-name="Egrave" unicode="&#xc8;" horiz-adv-x="540" 
d="M85 0q-11 0 -11 12v631q0 12 11 12h383q11 0 11 -12v-82q0 -12 -11 -12h-274v-167h250q11 0 11 -12v-77q0 -12 -11 -12h-250v-175h274q11 0 11 -12v-82q0 -12 -11 -12h-383zM268 709q-8 0 -13 6l-79 109q-4 5 -2.5 9t7.5 4h92q9 0 13 -8l58 -109q3 -4 1.5 -7.5t-7.5 -3.5
h-70z" />
    <glyph glyph-name="Emacron" unicode="&#x112;" horiz-adv-x="540" 
d="M85 0q-11 0 -11 12v631q0 12 11 12h383q11 0 11 -12v-82q0 -12 -11 -12h-274v-167h250q11 0 11 -12v-77q0 -12 -11 -12h-250v-175h274q11 0 11 -12v-82q0 -12 -11 -12h-383zM163 716q-12 0 -12 12v66q0 12 12 12h229q12 0 12 -12v-66q0 -12 -12 -12h-229z" />
    <glyph glyph-name="Eogonek" unicode="&#x118;" horiz-adv-x="540" 
d="M85 0q-11 0 -11 12v631q0 12 11 12h383q11 0 11 -12v-82q0 -12 -11 -12h-274v-167h250q11 0 11 -12v-77q0 -12 -11 -12h-250v-175h274q11 0 11 -12v-82q0 -12 -11 -12h-383zM399 -197q-51 0 -78 23t-27 60v11q0 45 35 78.5t98 50.5l17 -13v-11q-28 -12 -43 -32t-15 -43
v-8q0 -30 37 -30q8 0 14.5 0.5t13.5 1.5q10 2 10 -8v-64q0 -5 -2 -7t-8 -4q-12 -2 -26 -3.5t-26 -1.5z" />
    <glyph glyph-name="F" unicode="F" horiz-adv-x="516" 
d="M85 0q-11 0 -11 12v631q0 12 11 12h383q11 0 11 -12v-82q0 -12 -11 -12h-274v-177h236q11 0 11 -12v-79q0 -11 -11 -11h-236v-258q0 -12 -12 -12h-97z" />
    <glyph glyph-name="G" unicode="G" horiz-adv-x="660" 
d="M305 -12q-73 0 -128 28.5t-85 83.5t-30 135v185q0 120 70.5 183.5t193.5 63.5q88 0 148.5 -28t89 -77.5t19.5 -113.5q-1 -12 -12 -12l-97 1q-12 0 -11 12q2 36 -12.5 61.5t-44.5 38.5t-77 13q-73 0 -110 -35.5t-37 -109.5v-179q0 -75 36.5 -110t108.5 -35q70 0 107 32.5
t37 94.5v32h-135q-12 0 -12 12v67q0 11 12 11h238q11 0 11 -11v-184q0 -34 1.5 -69t6.5 -65q2 -6 -1.5 -9.5t-8.5 -3.5h-78q-5 0 -8 2.5t-5 7.5q-2 12 -3.5 29t-2.5 33h-2q-17 -26 -42.5 -45t-59.5 -29t-77 -10z" />
    <glyph glyph-name="Gbreve" unicode="&#x11e;" horiz-adv-x="660" 
d="M305 -12q-73 0 -128 28.5t-85 83.5t-30 135v185q0 120 70.5 183.5t193.5 63.5q88 0 148.5 -28t89 -77.5t19.5 -113.5q-1 -12 -12 -12l-97 1q-12 0 -11 12q2 36 -12.5 61.5t-44.5 38.5t-77 13q-73 0 -110 -35.5t-37 -109.5v-179q0 -75 36.5 -110t108.5 -35q70 0 107 32.5
t37 94.5v32h-135q-12 0 -12 12v67q0 11 12 11h238q11 0 11 -11v-184q0 -34 1.5 -69t6.5 -65q2 -6 -1.5 -9.5t-8.5 -3.5h-78q-5 0 -8 2.5t-5 7.5q-2 12 -3.5 29t-2.5 33h-2q-17 -26 -42.5 -45t-59.5 -29t-77 -10zM320 711q-46 0 -84.5 17t-53.5 30q-5 4 -5 13v66q0 8 3.5 10
t9.5 -2q20 -14 55.5 -30.5t74.5 -16.5q38 0 73.5 16.5t55.5 30.5q6 4 9.5 2t3.5 -10v-66q0 -9 -5 -13q-15 -13 -53 -30t-84 -17z" />
    <glyph glyph-name="uni0122" unicode="&#x122;" horiz-adv-x="660" 
d="M305 -12q-73 0 -128 28.5t-85 83.5t-30 135v185q0 120 70.5 183.5t193.5 63.5q88 0 148.5 -28t89 -77.5t19.5 -113.5q-1 -12 -12 -12l-97 1q-12 0 -11 12q2 36 -12.5 61.5t-44.5 38.5t-77 13q-73 0 -110 -35.5t-37 -109.5v-179q0 -75 36.5 -110t108.5 -35q70 0 107 32.5
t37 94.5v32h-135q-12 0 -12 12v67q0 11 12 11h238q11 0 11 -11v-184q0 -34 1.5 -69t6.5 -65q2 -6 -1.5 -9.5t-8.5 -3.5h-78q-5 0 -8 2.5t-5 7.5q-2 12 -3.5 29t-2.5 33h-2q-17 -26 -42.5 -45t-59.5 -29t-77 -10zM291 -247q-9 0 -7 10l14 69q-15 5 -22.5 17t-7.5 30v18
q0 24 15 37t40 13q31 0 45.5 -13t14.5 -37v-19q0 -14 -2 -26.5t-7 -25.5l-22 -66q-3 -7 -12 -7h-49z" />
    <glyph glyph-name="Gdotaccent" unicode="&#x120;" horiz-adv-x="660" 
d="M305 -12q-73 0 -128 28.5t-85 83.5t-30 135v185q0 120 70.5 183.5t193.5 63.5q88 0 148.5 -28t89 -77.5t19.5 -113.5q-1 -12 -12 -12l-97 1q-12 0 -11 12q2 36 -12.5 61.5t-44.5 38.5t-77 13q-73 0 -110 -35.5t-37 -109.5v-179q0 -75 36.5 -110t108.5 -35q70 0 107 32.5
t37 94.5v32h-135q-12 0 -12 12v67q0 11 12 11h238q11 0 11 -11v-184q0 -34 1.5 -69t6.5 -65q2 -6 -1.5 -9.5t-8.5 -3.5h-78q-5 0 -8 2.5t-5 7.5q-2 12 -3.5 29t-2.5 33h-2q-17 -26 -42.5 -45t-59.5 -29t-77 -10zM320 722q-34 0 -51.5 17.5t-17.5 46.5v15q0 29 17.5 46.5
t51.5 17.5t51 -17.5t17 -46.5v-15q0 -29 -17 -46.5t-51 -17.5z" />
    <glyph glyph-name="H" unicode="H" horiz-adv-x="668" 
d="M85 0q-11 0 -11 12v631q0 12 11 12h97q12 0 12 -12v-257h280v257q0 12 12 12h97q11 0 11 -12v-631q0 -12 -11 -12h-97q-12 0 -12 12v270h-280v-270q0 -12 -12 -12h-97z" />
    <glyph glyph-name="Hbar" unicode="&#x126;" horiz-adv-x="668" 
d="M30 504q-12 0 -12 12v62q0 12 12 12h608q12 0 12 -12v-62q0 -12 -12 -12h-44h-520h-44zM85 0q-11 0 -11 12v631q0 12 11 12h97q12 0 12 -12v-257h280v257q0 12 12 12h97q11 0 11 -12v-631q0 -12 -11 -12h-97q-12 0 -12 12v270h-280v-270q0 -12 -12 -12h-97z" />
    <glyph glyph-name="I" unicode="I" horiz-adv-x="267" 
d="M85 0q-11 0 -11 12v631q0 12 11 12h97q12 0 12 -12v-631q0 -12 -12 -12h-97z" />
    <glyph glyph-name="IJ" unicode="&#x132;" horiz-adv-x="544" 
d="M85 0q-11 0 -11 12v631q0 12 11 12h97q12 0 12 -12v-631q0 -12 -12 -12h-97zM304 -151q-19 -4 -23 6l-24 82q-4 12 15 17q39 9 59 43.5t20 94.5v551q0 12 11 12h97q12 0 12 -12v-543q0 -112 -42 -174t-125 -77z" />
    <glyph glyph-name="Iacute" unicode="&#xcd;" horiz-adv-x="267" 
d="M85 0q-11 0 -11 12v631q0 12 11 12h97q12 0 12 -12v-631q0 -12 -12 -12h-97zM71 709q-6 0 -7 3.5t1 7.5l59 109q4 8 13 8h91q6 0 7.5 -4t-1.5 -9l-80 -109q-4 -6 -13 -6h-70z" />
    <glyph glyph-name="Icircumflex" unicode="&#xce;" horiz-adv-x="267" 
d="M85 0q-11 0 -11 12v631q0 12 11 12h97q12 0 12 -12v-631q0 -12 -12 -12h-97zM2 714q-12 -5 -12 7v63q0 9 8 12l128 59q9 4 17 0l128 -59q8 -3 8 -12v-63q0 -12 -12 -7l-132 50z" />
    <glyph glyph-name="Idieresis" unicode="&#xcf;" horiz-adv-x="267" 
d="M85 0q-11 0 -11 12v631q0 12 11 12h97q12 0 12 -12v-631q0 -12 -12 -12h-97zM41 709q-32 0 -47.5 16.5t-15.5 43.5v14q0 28 15.5 43.5t47.5 15.5q33 0 48.5 -15.5t15.5 -43.5v-14q0 -27 -15.5 -43.5t-48.5 -16.5zM228 709q-32 0 -47.5 16.5t-15.5 43.5v14q0 28 15.5 43.5
t47.5 15.5t47.5 -15.5t15.5 -43.5v-14q0 -27 -15.5 -43.5t-47.5 -16.5z" />
    <glyph glyph-name="Idotaccent" unicode="&#x130;" horiz-adv-x="267" 
d="M85 0q-11 0 -11 12v631q0 12 11 12h97q12 0 12 -12v-631q0 -12 -12 -12h-97zM135 722q-34 0 -51.5 17.5t-17.5 46.5v15q0 29 17.5 46.5t51.5 17.5t51 -17.5t17 -46.5v-15q0 -29 -17 -46.5t-51 -17.5z" />
    <glyph glyph-name="Igrave" unicode="&#xcc;" horiz-adv-x="267" 
d="M85 0q-11 0 -11 12v631q0 12 11 12h97q12 0 12 -12v-631q0 -12 -12 -12h-97zM125 709q-8 0 -13 6l-79 109q-4 5 -2.5 9t7.5 4h92q9 0 13 -8l58 -109q3 -4 1.5 -7.5t-7.5 -3.5h-70z" />
    <glyph glyph-name="Imacron" unicode="&#x12a;" horiz-adv-x="267" 
d="M85 0q-11 0 -11 12v631q0 12 11 12h97q12 0 12 -12v-631q0 -12 -12 -12h-97zM20 716q-12 0 -12 12v66q0 12 12 12h229q12 0 12 -12v-66q0 -12 -12 -12h-229z" />
    <glyph glyph-name="Iogonek" unicode="&#x12e;" horiz-adv-x="267" 
d="M85 0q-11 0 -11 12v631q0 12 11 12h97q12 0 12 -12v-631q0 -12 -12 -12h-97zM140 -197q-51 0 -78 23t-27 60v11q0 45 35 78.5t98 50.5l17 -13v-11q-28 -12 -43 -32t-15 -43v-8q0 -30 37 -30q8 0 14.5 0.5t13.5 1.5q10 2 10 -8v-64q0 -5 -2 -7t-8 -4q-12 -2 -26 -3.5
t-26 -1.5z" />
    <glyph glyph-name="J" unicode="J" horiz-adv-x="277" 
d="M37 -151q-19 -4 -23 6l-24 82q-4 12 15 17q39 9 59 43.5t20 94.5v551q0 12 11 12h97q12 0 12 -12v-543q0 -112 -42 -174t-125 -77z" />
    <glyph glyph-name="K" unicode="K" horiz-adv-x="615" 
d="M85 0q-11 0 -11 12v631q0 12 11 12h97q12 0 12 -12v-172q0 -29 -0.5 -59t-2.5 -60h2q20 27 41 54t43 54l162 189q5 6 14 6h121q7 0 9.5 -4t-2.5 -10l-220 -252l240 -375q4 -6 2 -10t-9 -4h-120q-9 0 -14 8l-182 288l-84 -95v-189q0 -12 -12 -12h-97z" />
    <glyph glyph-name="uni0136" unicode="&#x136;" horiz-adv-x="615" 
d="M85 0q-11 0 -11 12v631q0 12 11 12h97q12 0 12 -12v-172q0 -29 -0.5 -59t-2.5 -60h2q20 27 41 54t43 54l162 189q5 6 14 6h121q7 0 9.5 -4t-2.5 -10l-220 -252l240 -375q4 -6 2 -10t-9 -4h-120q-9 0 -14 8l-182 288l-84 -95v-189q0 -12 -12 -12h-97zM286 -247q-9 0 -7 10
l14 69q-15 5 -22.5 17t-7.5 30v18q0 24 15 37t40 13q31 0 45.5 -13t14.5 -37v-19q0 -14 -2 -26.5t-7 -25.5l-22 -66q-3 -7 -12 -7h-49z" />
    <glyph glyph-name="L" unicode="L" horiz-adv-x="487" 
d="M85 0q-11 0 -11 12v631q0 12 11 12h98q11 0 11 -12v-537h263q12 0 12 -12v-82q0 -12 -12 -12h-372z" />
    <glyph glyph-name="Lacute" unicode="&#x139;" horiz-adv-x="487" 
d="M85 0q-11 0 -11 12v631q0 12 11 12h98q11 0 11 -12v-537h263q12 0 12 -12v-82q0 -12 -12 -12h-372zM70 709q-6 0 -7 3.5t1 7.5l59 109q4 8 13 8h91q6 0 7.5 -4t-1.5 -9l-80 -109q-4 -6 -13 -6h-70z" />
    <glyph glyph-name="Lcaron" unicode="&#x13d;" horiz-adv-x="487" 
d="M85 0q-11 0 -11 12v631q0 12 11 12h98q11 0 11 -12v-537h263q12 0 12 -12v-82q0 -12 -12 -12h-372zM290 498q-10 0 -8 10l12 55q-13 5 -20.5 14t-7.5 26v22q0 19 13.5 30.5t38.5 11.5q28 0 41.5 -11t13.5 -31v-23q0 -12 -1.5 -22.5t-6.5 -23.5l-19 -50q-3 -8 -12 -8h-44z
" />
    <glyph glyph-name="uni013B" unicode="&#x13b;" horiz-adv-x="487" 
d="M85 0q-11 0 -11 12v631q0 12 11 12h98q11 0 11 -12v-537h263q12 0 12 -12v-82q0 -12 -12 -12h-372zM242 -247q-9 0 -7 10l14 69q-15 5 -22.5 17t-7.5 30v18q0 24 15 37t40 13q31 0 45.5 -13t14.5 -37v-19q0 -14 -2 -26.5t-7 -25.5l-22 -66q-3 -7 -12 -7h-49z" />
    <glyph glyph-name="Lslash" unicode="&#x141;" horiz-adv-x="487" 
d="M5 254q-14 -5 -14 10v73q0 10 10 13l311 113q13 5 13 -10v-72q0 -11 -9 -14zM85 0q-11 0 -11 12v631q0 12 11 12h98q11 0 11 -12v-537h263q12 0 12 -12v-82q0 -12 -12 -12h-372z" />
    <glyph glyph-name="M" unicode="M" horiz-adv-x="785" 
d="M71 0q-11 0 -11 12l13 631q0 12 12 12h129q9 0 13 -9l167 -364l164 364q5 9 14 9h129q11 0 11 -12l14 -631q0 -12 -12 -12h-94q-12 0 -12 12l-8 323q-1 40 1 80.5t3 79.5h-3q-16 -39 -33.5 -78.5t-36.5 -77.5l-123 -259q-4 -8 -14 -8h-4q-9 0 -13 8l-124 262
q-19 37 -36 76.5t-32 76.5h-3q2 -38 3 -78.5t0 -79.5l-8 -325q0 -12 -11 -12h-95z" />
    <glyph glyph-name="N" unicode="N" horiz-adv-x="669" 
d="M85 0q-11 0 -11 12v631q0 12 11 12h142q10 0 14 -8l161 -325q17 -33 31.5 -64t26.5 -59t21 -52h3q-2 27 -3 58.5t-1.5 63.5t-0.5 58v316q0 12 11 12h94q12 0 12 -12v-631q0 -12 -12 -12h-140q-10 0 -14 8l-156 314q-15 30 -29.5 61.5t-28 62.5t-25.5 59h-3q1 -31 2 -63
t1 -64v-64v-302q0 -12 -12 -12h-94z" />
    <glyph glyph-name="Nacute" unicode="&#x143;" horiz-adv-x="669" 
d="M85 0q-11 0 -11 12v631q0 12 11 12h142q10 0 14 -8l161 -325q17 -33 31.5 -64t26.5 -59t21 -52h3q-2 27 -3 58.5t-1.5 63.5t-0.5 58v316q0 12 11 12h94q12 0 12 -12v-631q0 -12 -12 -12h-140q-10 0 -14 8l-156 314q-15 30 -29.5 61.5t-28 62.5t-25.5 59h-3q1 -31 2 -63
t1 -64v-64v-302q0 -12 -12 -12h-94zM271 709q-6 0 -7 3.5t1 7.5l59 109q4 8 13 8h91q6 0 7.5 -4t-1.5 -9l-80 -109q-4 -6 -13 -6h-70z" />
    <glyph glyph-name="Ncaron" unicode="&#x147;" horiz-adv-x="669" 
d="M85 0q-11 0 -11 12v631q0 12 11 12h142q10 0 14 -8l161 -325q17 -33 31.5 -64t26.5 -59t21 -52h3q-2 27 -3 58.5t-1.5 63.5t-0.5 58v316q0 12 11 12h94q12 0 12 -12v-631q0 -12 -12 -12h-140q-10 0 -14 8l-156 314q-15 30 -29.5 61.5t-28 62.5t-25.5 59h-3q1 -31 2 -63
t1 -64v-64v-302q0 -12 -12 -12h-94zM326 715l-128 58q-8 4 -8 12v64q0 12 12 6l133 -50l132 50q12 6 12 -6v-64q0 -8 -8 -12l-128 -58q-8 -4 -17 0z" />
    <glyph glyph-name="uni0145" unicode="&#x145;" horiz-adv-x="669" 
d="M85 0q-11 0 -11 12v631q0 12 11 12h142q10 0 14 -8l161 -325q17 -33 31.5 -64t26.5 -59t21 -52h3q-2 27 -3 58.5t-1.5 63.5t-0.5 58v316q0 12 11 12h94q12 0 12 -12v-631q0 -12 -12 -12h-140q-10 0 -14 8l-156 314q-15 30 -29.5 61.5t-28 62.5t-25.5 59h-3q1 -31 2 -63
t1 -64v-64v-302q0 -12 -12 -12h-94zM300 -247q-9 0 -7 10l14 69q-15 5 -22.5 17t-7.5 30v18q0 24 15 37t40 13q31 0 45.5 -13t14.5 -37v-19q0 -14 -2 -26.5t-7 -25.5l-22 -66q-3 -7 -12 -7h-49z" />
    <glyph glyph-name="Eng" unicode="&#x14a;" horiz-adv-x="669" 
d="M454 -188l-56 67q-4 5 -2.5 10t9.5 9q24 17 41 43.5t24 58.5h-26q-10 0 -14 8l-156 314q-15 30 -29.5 61.5t-28 62.5t-25.5 59h-3q1 -31 2 -63t1 -64v-64v-302q0 -12 -12 -12h-94q-11 0 -11 12v631q0 12 11 12h142q10 0 14 -8l161 -325q17 -33 31.5 -64t26.5 -59t21 -52
h3q-2 27 -3 58.5t-1.5 63.5t-0.5 58v316q0 12 11 12h94q12 0 12 -12v-569q0 -63 -12.5 -112t-38.5 -85.5t-67 -61.5q-10 -6 -15 -6.5t-9 3.5z" />
    <glyph glyph-name="Ntilde" unicode="&#xd1;" horiz-adv-x="669" 
d="M85 0q-11 0 -11 12v631q0 12 11 12h142q10 0 14 -8l161 -325q17 -33 31.5 -64t26.5 -59t21 -52h3q-2 27 -3 58.5t-1.5 63.5t-0.5 58v316q0 12 11 12h94q12 0 12 -12v-631q0 -12 -12 -12h-140q-10 0 -14 8l-156 314q-15 30 -29.5 61.5t-28 62.5t-25.5 59h-3q1 -31 2 -63
t1 -64v-64v-302q0 -12 -12 -12h-94zM391 718q-22 0 -40 7t-35 13.5t-38 6.5t-40.5 -6.5t-32.5 -13.5q-14 -7 -14 8v58q0 10 7 15q12 7 33 17t49 10t46 -6.5t33.5 -14t34.5 -7.5q20 0 40 6.5t32 13.5q14 8 14 -7v-58q0 -9 -7 -15q-11 -9 -32.5 -18t-49.5 -9z" />
    <glyph glyph-name="O" unicode="O" horiz-adv-x="651" 
d="M326 -12q-132 0 -198 63.5t-66 182.5v187q0 120 66 183t198 63q131 0 197 -63t66 -183v-187q0 -119 -66 -182.5t-197 -63.5zM326 93q71 0 107 37.5t36 109.5v175q0 72 -36 109.5t-107 37.5t-107.5 -37.5t-36.5 -109.5v-175q0 -72 36.5 -109.5t107.5 -37.5z" />
    <glyph glyph-name="Oacute" unicode="&#xd3;" horiz-adv-x="651" 
d="M326 -12q-132 0 -198 63.5t-66 182.5v187q0 120 66 183t198 63q131 0 197 -63t66 -183v-187q0 -119 -66 -182.5t-197 -63.5zM326 93q71 0 107 37.5t36 109.5v175q0 72 -36 109.5t-107 37.5t-107.5 -37.5t-36.5 -109.5v-175q0 -72 36.5 -109.5t107.5 -37.5zM261 709
q-6 0 -7 3.5t1 7.5l59 109q4 8 13 8h91q6 0 7.5 -4t-1.5 -9l-80 -109q-4 -6 -13 -6h-70z" />
    <glyph glyph-name="Ocircumflex" unicode="&#xd4;" horiz-adv-x="651" 
d="M326 -12q-132 0 -198 63.5t-66 182.5v187q0 120 66 183t198 63q131 0 197 -63t66 -183v-187q0 -119 -66 -182.5t-197 -63.5zM326 93q71 0 107 37.5t36 109.5v175q0 72 -36 109.5t-107 37.5t-107.5 -37.5t-36.5 -109.5v-175q0 -72 36.5 -109.5t107.5 -37.5zM193 714
q-12 -5 -12 7v63q0 9 8 12l128 59q9 4 17 0l128 -59q8 -3 8 -12v-63q0 -12 -12 -7l-132 50z" />
    <glyph glyph-name="Odieresis" unicode="&#xd6;" horiz-adv-x="651" 
d="M326 -12q-132 0 -198 63.5t-66 182.5v187q0 120 66 183t198 63q131 0 197 -63t66 -183v-187q0 -119 -66 -182.5t-197 -63.5zM326 93q71 0 107 37.5t36 109.5v175q0 72 -36 109.5t-107 37.5t-107.5 -37.5t-36.5 -109.5v-175q0 -72 36.5 -109.5t107.5 -37.5zM232 709
q-32 0 -47.5 16.5t-15.5 43.5v14q0 28 15.5 43.5t47.5 15.5q33 0 48.5 -15.5t15.5 -43.5v-14q0 -27 -15.5 -43.5t-48.5 -16.5zM419 709q-32 0 -47.5 16.5t-15.5 43.5v14q0 28 15.5 43.5t47.5 15.5t47.5 -15.5t15.5 -43.5v-14q0 -27 -15.5 -43.5t-47.5 -16.5z" />
    <glyph glyph-name="Ograve" unicode="&#xd2;" horiz-adv-x="651" 
d="M326 -12q-132 0 -198 63.5t-66 182.5v187q0 120 66 183t198 63q131 0 197 -63t66 -183v-187q0 -119 -66 -182.5t-197 -63.5zM326 93q71 0 107 37.5t36 109.5v175q0 72 -36 109.5t-107 37.5t-107.5 -37.5t-36.5 -109.5v-175q0 -72 36.5 -109.5t107.5 -37.5zM316 709
q-8 0 -13 6l-79 109q-4 5 -2.5 9t7.5 4h92q9 0 13 -8l58 -109q3 -4 1.5 -7.5t-7.5 -3.5h-70z" />
    <glyph glyph-name="Ohungarumlaut" unicode="&#x150;" horiz-adv-x="651" 
d="M326 -12q-132 0 -198 63.5t-66 182.5v187q0 120 66 183t198 63q131 0 197 -63t66 -183v-187q0 -119 -66 -182.5t-197 -63.5zM326 93q71 0 107 37.5t36 109.5v175q0 72 -36 109.5t-107 37.5t-107.5 -37.5t-36.5 -109.5v-175q0 -72 36.5 -109.5t107.5 -37.5zM364 709
q-13 0 -8 12l46 107q4 9 13 9h83q14 0 7 -13l-59 -107q-5 -8 -15 -8h-67zM202 709q-13 0 -8 12l46 107q4 9 14 9h82q15 0 7 -13l-59 -107q-5 -8 -14 -8h-68z" />
    <glyph glyph-name="Omacron" unicode="&#x14c;" horiz-adv-x="651" 
d="M326 -12q-132 0 -198 63.5t-66 182.5v187q0 120 66 183t198 63q131 0 197 -63t66 -183v-187q0 -119 -66 -182.5t-197 -63.5zM326 93q71 0 107 37.5t36 109.5v175q0 72 -36 109.5t-107 37.5t-107.5 -37.5t-36.5 -109.5v-175q0 -72 36.5 -109.5t107.5 -37.5zM210 716
q-12 0 -12 12v66q0 12 12 12h229q12 0 12 -12v-66q0 -12 -12 -12h-229z" />
    <glyph glyph-name="Oslash" unicode="&#xd8;" horiz-adv-x="651" 
d="M59 -50q-7 0 -9 4t1 10l76 123l48 69l248 404l29 65l44 72q5 8 14 8h83q6 0 8.5 -4t-1.5 -10l-75 -124l-48 -70l-243 -397l-34 -71l-45 -72q-4 -7 -14 -7h-82zM326 -12q-132 0 -198 63.5t-66 182.5v187q0 120 66 183t198 63q131 0 197 -63t66 -183v-187
q0 -119 -66 -182.5t-197 -63.5zM326 93q71 0 107 37.5t36 109.5v175q0 72 -36 109.5t-107 37.5t-107.5 -37.5t-36.5 -109.5v-175q0 -72 36.5 -109.5t107.5 -37.5z" />
    <glyph glyph-name="Otilde" unicode="&#xd5;" horiz-adv-x="651" 
d="M326 -12q-132 0 -198 63.5t-66 182.5v187q0 120 66 183t198 63q131 0 197 -63t66 -183v-187q0 -119 -66 -182.5t-197 -63.5zM326 93q71 0 107 37.5t36 109.5v175q0 72 -36 109.5t-107 37.5t-107.5 -37.5t-36.5 -109.5v-175q0 -72 36.5 -109.5t107.5 -37.5zM382 718
q-22 0 -40 7t-35 13.5t-38 6.5t-40.5 -6.5t-32.5 -13.5q-14 -7 -14 8v58q0 10 7 15q12 7 33 17t49 10t46 -6.5t33.5 -14t34.5 -7.5q20 0 40 6.5t32 13.5q14 8 14 -7v-58q0 -9 -7 -15q-11 -9 -32.5 -18t-49.5 -9z" />
    <glyph glyph-name="OE" unicode="&#x152;" horiz-adv-x="884" 
d="M324 -12q-131 0 -196.5 64t-65.5 182v187q0 119 65.5 182.5t197.5 63.5q24 0 52.5 -3t49.5 -9h385q12 0 12 -12v-82q0 -12 -12 -12h-274v-167h250q12 0 12 -12v-77q0 -12 -12 -12h-250v-175h274q12 0 12 -12v-82q0 -12 -12 -12h-385q-20 -6 -48.5 -9t-54.5 -3zM327 93
q26 0 50 2t41 6v451q-17 5 -42 7.5t-49 2.5q-72 0 -108.5 -37t-36.5 -108v-179q0 -70 36.5 -107.5t108.5 -37.5z" />
    <glyph glyph-name="P" unicode="P" horiz-adv-x="559" 
d="M85 0q-11 0 -11 12v631q0 12 11 12h186q130 0 191.5 -54.5t61.5 -159.5q0 -103 -63 -157.5t-189 -54.5h-78v-217q0 -12 -12 -12h-97zM194 331h76q68 0 101 26t33 83q0 60 -33 86t-102 26h-75v-221z" />
    <glyph glyph-name="Thorn" unicode="&#xde;" horiz-adv-x="559" 
d="M85 0q-11 0 -11 12v631q0 12 11 12h97q12 0 12 -12v-91h77q130 0 191.5 -54t61.5 -159q0 -103 -63 -158t-189 -55h-78v-114q0 -12 -12 -12h-97zM194 228h76q68 0 101 26t33 83q0 60 -33 86.5t-102 26.5h-75v-222z" />
    <glyph glyph-name="Q" unicode="Q" horiz-adv-x="651" 
d="M453 -183q-46 0 -78.5 23.5t-48.5 72.5t-13 124q0 12 12 12l82 -2q11 0 11 -12q-1 -63 12 -92t46 -29q10 0 18.5 2t16.5 3q6 2 9 -1t3 -9v-67q0 -10 -11 -15q-9 -3 -25 -6.5t-34 -3.5zM326 -12q-132 0 -198 63.5t-66 182.5v187q0 120 66 183t198 63q131 0 197 -63
t66 -183v-187q0 -119 -66 -182.5t-197 -63.5zM326 93q71 0 107 37.5t36 109.5v175q0 72 -36 109.5t-107 37.5t-107.5 -37.5t-36.5 -109.5v-175q0 -72 36.5 -109.5t107.5 -37.5z" />
    <glyph glyph-name="R" unicode="R" horiz-adv-x="613" 
d="M85 0q-11 0 -11 12v631q0 12 11 12h210q129 0 188 -49.5t59 -144.5q0 -69 -31.5 -116.5t-93.5 -65.5v-2l161 -263q4 -6 1.5 -10t-9.5 -4h-111q-9 0 -14 8l-151 253h-100v-249q0 -12 -12 -12h-97zM194 356h96q69 0 100.5 24t31.5 77q0 52 -29 74t-98 22h-101v-197z" />
    <glyph glyph-name="Racute" unicode="&#x154;" horiz-adv-x="613" 
d="M85 0q-11 0 -11 12v631q0 12 11 12h210q129 0 188 -49.5t59 -144.5q0 -69 -31.5 -116.5t-93.5 -65.5v-2l161 -263q4 -6 1.5 -10t-9.5 -4h-111q-9 0 -14 8l-151 253h-100v-249q0 -12 -12 -12h-97zM194 356h96q69 0 100.5 24t31.5 77q0 52 -29 74t-98 22h-101v-197z
M215 709q-6 0 -7 3.5t1 7.5l59 109q4 8 13 8h91q6 0 7.5 -4t-1.5 -9l-80 -109q-4 -6 -13 -6h-70z" />
    <glyph glyph-name="Rcaron" unicode="&#x158;" horiz-adv-x="613" 
d="M85 0q-11 0 -11 12v631q0 12 11 12h210q129 0 188 -49.5t59 -144.5q0 -69 -31.5 -116.5t-93.5 -65.5v-2l161 -263q4 -6 1.5 -10t-9.5 -4h-111q-9 0 -14 8l-151 253h-100v-249q0 -12 -12 -12h-97zM194 356h96q69 0 100.5 24t31.5 77q0 52 -29 74t-98 22h-101v-197z
M270 715l-128 58q-8 4 -8 12v64q0 12 12 6l133 -50l132 50q12 6 12 -6v-64q0 -8 -8 -12l-128 -58q-8 -4 -17 0z" />
    <glyph glyph-name="uni0156" unicode="&#x156;" horiz-adv-x="613" 
d="M85 0q-11 0 -11 12v631q0 12 11 12h210q129 0 188 -49.5t59 -144.5q0 -69 -31.5 -116.5t-93.5 -65.5v-2l161 -263q4 -6 1.5 -10t-9.5 -4h-111q-9 0 -14 8l-151 253h-100v-249q0 -12 -12 -12h-97zM194 356h96q69 0 100.5 24t31.5 77q0 52 -29 74t-98 22h-101v-197z
M275 -247q-9 0 -7 10l14 69q-15 5 -22.5 17t-7.5 30v18q0 24 15 37t40 13q31 0 45.5 -13t14.5 -37v-19q0 -14 -2 -26.5t-7 -25.5l-22 -66q-3 -7 -12 -7h-49z" />
    <glyph glyph-name="S" unicode="S" horiz-adv-x="572" 
d="M279 -12q-127 0 -185 51.5t-51 143.5q2 17 14 17h94q13 0 12 -15q0 -49 30 -71.5t92 -22.5q61 0 90.5 19.5t29.5 60.5q0 19 -7 33.5t-24 26t-46 23.5l-145 62q-48 21 -77 45.5t-41 56.5t-12 73q1 85 57 130t167 45q78 0 132.5 -21.5t81.5 -63t21 -103.5q-2 -18 -12 -18
h-95q-6 0 -9 4t-2 14q3 40 -28.5 63.5t-89.5 23.5q-51 0 -77 -18t-26 -54q0 -19 7 -33.5t24.5 -26.5t47.5 -25l143 -61q49 -20 77.5 -44.5t41 -56.5t11.5 -76q0 -87 -59 -134.5t-187 -47.5z" />
    <glyph glyph-name="Sacute" unicode="&#x15a;" horiz-adv-x="572" 
d="M279 -12q-127 0 -185 51.5t-51 143.5q2 17 14 17h94q13 0 12 -15q0 -49 30 -71.5t92 -22.5q61 0 90.5 19.5t29.5 60.5q0 19 -7 33.5t-24 26t-46 23.5l-145 62q-48 21 -77 45.5t-41 56.5t-12 73q1 85 57 130t167 45q78 0 132.5 -21.5t81.5 -63t21 -103.5q-2 -18 -12 -18
h-95q-6 0 -9 4t-2 14q3 40 -28.5 63.5t-89.5 23.5q-51 0 -77 -18t-26 -54q0 -19 7 -33.5t24.5 -26.5t47.5 -25l143 -61q49 -20 77.5 -44.5t41 -56.5t11.5 -76q0 -87 -59 -134.5t-187 -47.5zM218 709q-6 0 -7 3.5t1 7.5l59 109q4 8 13 8h91q6 0 7.5 -4t-1.5 -9l-80 -109
q-4 -6 -13 -6h-70z" />
    <glyph glyph-name="Scaron" unicode="&#x160;" horiz-adv-x="572" 
d="M279 -12q-127 0 -185 51.5t-51 143.5q2 17 14 17h94q13 0 12 -15q0 -49 30 -71.5t92 -22.5q61 0 90.5 19.5t29.5 60.5q0 19 -7 33.5t-24 26t-46 23.5l-145 62q-48 21 -77 45.5t-41 56.5t-12 73q1 85 57 130t167 45q78 0 132.5 -21.5t81.5 -63t21 -103.5q-2 -18 -12 -18
h-95q-6 0 -9 4t-2 14q3 40 -28.5 63.5t-89.5 23.5q-51 0 -77 -18t-26 -54q0 -19 7 -33.5t24.5 -26.5t47.5 -25l143 -61q49 -20 77.5 -44.5t41 -56.5t11.5 -76q0 -87 -59 -134.5t-187 -47.5zM274 715l-128 58q-8 4 -8 12v64q0 12 12 6l133 -50l132 50q12 6 12 -6v-64
q0 -8 -8 -12l-128 -58q-8 -4 -17 0z" />
    <glyph glyph-name="Scedilla" unicode="&#x15e;" horiz-adv-x="572" 
d="M279 -12q-127 0 -185 51.5t-51 143.5q2 17 14 17h94q13 0 12 -15q0 -49 30 -71.5t92 -22.5q61 0 90.5 19.5t29.5 60.5q0 19 -7 33.5t-24 26t-46 23.5l-145 62q-48 21 -77 45.5t-41 56.5t-12 73q1 85 57 130t167 45q78 0 132.5 -21.5t81.5 -63t21 -103.5q-2 -18 -12 -18
h-95q-6 0 -9 4t-2 14q3 40 -28.5 63.5t-89.5 23.5q-51 0 -77 -18t-26 -54q0 -19 7 -33.5t24.5 -26.5t47.5 -25l143 -61q49 -20 77.5 -44.5t41 -56.5t11.5 -76q0 -87 -59 -134.5t-187 -47.5zM268 -197q-14 0 -26 1t-24 3q-9 2 -9 10v46q0 10 9 9q6 -1 14.5 -1.5t14.5 -0.5
q21 0 30 6t9 16v10q0 14 -8 19t-24 5h-23q-7 0 -7 7q0 5 0.5 11t1.5 10l25 78q2 7 10 7h63q10 0 6 -12l-21 -63h9q27 0 42 -17t15 -46v-16q0 -40 -26 -61t-81 -21z" />
    <glyph glyph-name="uni0218" unicode="&#x218;" horiz-adv-x="572" 
d="M279 -12q-127 0 -185 51.5t-51 143.5q2 17 14 17h94q13 0 12 -15q0 -49 30 -71.5t92 -22.5q61 0 90.5 19.5t29.5 60.5q0 19 -7 33.5t-24 26t-46 23.5l-145 62q-48 21 -77 45.5t-41 56.5t-12 73q1 85 57 130t167 45q78 0 132.5 -21.5t81.5 -63t21 -103.5q-2 -18 -12 -18
h-95q-6 0 -9 4t-2 14q3 40 -28.5 63.5t-89.5 23.5q-51 0 -77 -18t-26 -54q0 -19 7 -33.5t24.5 -26.5t47.5 -25l143 -61q49 -20 77.5 -44.5t41 -56.5t11.5 -76q0 -87 -59 -134.5t-187 -47.5zM258 -247q-9 0 -7 10l14 69q-15 5 -22.5 17t-7.5 30v18q0 24 15 37t40 13
q31 0 45.5 -13t14.5 -37v-19q0 -14 -2 -26.5t-7 -25.5l-22 -66q-3 -7 -12 -7h-49z" />
    <glyph glyph-name="uni1E9E" unicode="&#x1e9e;" horiz-adv-x="665" 
d="M416 -12q-67 0 -107 19t-57 53.5t-13 82.5q1 11 4.5 14t9.5 3l89 -1q11 0 11 -18q0 -23 16 -36t49 -13q46 0 68.5 25.5t22.5 79.5q0 59 -29.5 85t-96.5 26h-60q-12 0 -12 12v41q0 8 4 15l99 172h-220v-536q0 -12 -12 -12h-97q-11 0 -11 12v631q0 12 11 12h488
q9 0 11.5 -7.5t-2.5 -16.5l-133 -232q90 -10 135 -60t45 -142q0 -106 -55.5 -157.5t-157.5 -51.5z" />
    <glyph glyph-name="T" unicode="T" horiz-adv-x="545" 
d="M224 0q-12 0 -12 12v537h-172q-12 0 -12 12v82q0 12 12 12h465q12 0 12 -12v-82q0 -12 -12 -12h-172v-537q0 -12 -12 -12h-97z" />
    <glyph glyph-name="Tbar" unicode="&#x166;" horiz-adv-x="545" 
d="M121 283q-11 0 -11 12v65q0 12 11 12h304q11 0 11 -12v-65q0 -12 -11 -12h-92h-120h-92zM224 0q-12 0 -12 12v537h-172q-12 0 -12 12v82q0 12 12 12h465q12 0 12 -12v-82q0 -12 -12 -12h-172v-537q0 -12 -12 -12h-97z" />
    <glyph glyph-name="Tcaron" unicode="&#x164;" horiz-adv-x="545" 
d="M224 0q-12 0 -12 12v537h-172q-12 0 -12 12v82q0 12 12 12h465q12 0 12 -12v-82q0 -12 -12 -12h-172v-537q0 -12 -12 -12h-97zM265 715l-128 58q-8 4 -8 12v64q0 12 12 6l133 -50l132 50q12 6 12 -6v-64q0 -8 -8 -12l-128 -58q-8 -4 -17 0z" />
    <glyph glyph-name="uni0162" unicode="&#x162;" horiz-adv-x="545" 
d="M224 0q-12 0 -12 12v537h-172q-12 0 -12 12v82q0 12 12 12h465q12 0 12 -12v-82q0 -12 -12 -12h-172v-537q0 -12 -12 -12h-97zM249 -197q-14 0 -26 1t-24 3q-9 2 -9 10v46q0 10 9 9q6 -1 14.5 -1.5t14.5 -0.5q21 0 30 6t9 16v10q0 14 -8 19t-24 5h-23q-7 0 -7 7
q0 5 0.5 11t1.5 10l25 78q2 7 10 7h63q10 0 6 -12l-21 -63h9q27 0 42 -17t15 -46v-16q0 -40 -26 -61t-81 -21z" />
    <glyph glyph-name="uni021A" unicode="&#x21a;" horiz-adv-x="545" 
d="M224 0q-12 0 -12 12v537h-172q-12 0 -12 12v82q0 12 12 12h465q12 0 12 -12v-82q0 -12 -12 -12h-172v-537q0 -12 -12 -12h-97zM238 -247q-9 0 -7 10l14 69q-15 5 -22.5 17t-7.5 30v18q0 24 15 37t40 13q31 0 45.5 -13t14.5 -37v-19q0 -14 -2 -26.5t-7 -25.5l-22 -66
q-3 -7 -12 -7h-49z" />
    <glyph glyph-name="U" unicode="U" horiz-adv-x="651" 
d="M326 -12q-125 0 -191 62t-66 185v408q0 12 11 12h97q12 0 12 -12v-406q0 -69 34 -106.5t103 -37.5t103 37.5t34 106.5v406q0 12 11 12h97q12 0 12 -12v-410q0 -119 -67 -182t-190 -63z" />
    <glyph glyph-name="Uacute" unicode="&#xda;" horiz-adv-x="651" 
d="M326 -12q-125 0 -191 62t-66 185v408q0 12 11 12h97q12 0 12 -12v-406q0 -69 34 -106.5t103 -37.5t103 37.5t34 106.5v406q0 12 11 12h97q12 0 12 -12v-410q0 -119 -67 -182t-190 -63zM262 709q-6 0 -7 3.5t1 7.5l59 109q4 8 13 8h91q6 0 7.5 -4t-1.5 -9l-80 -109
q-4 -6 -13 -6h-70z" />
    <glyph glyph-name="Ucircumflex" unicode="&#xdb;" horiz-adv-x="651" 
d="M326 -12q-125 0 -191 62t-66 185v408q0 12 11 12h97q12 0 12 -12v-406q0 -69 34 -106.5t103 -37.5t103 37.5t34 106.5v406q0 12 11 12h97q12 0 12 -12v-410q0 -119 -67 -182t-190 -63zM194 714q-12 -5 -12 7v63q0 9 8 12l128 59q9 4 17 0l128 -59q8 -3 8 -12v-63
q0 -12 -12 -7l-132 50z" />
    <glyph glyph-name="Udieresis" unicode="&#xdc;" horiz-adv-x="651" 
d="M326 -12q-125 0 -191 62t-66 185v408q0 12 11 12h97q12 0 12 -12v-406q0 -69 34 -106.5t103 -37.5t103 37.5t34 106.5v406q0 12 11 12h97q12 0 12 -12v-410q0 -119 -67 -182t-190 -63zM232 709q-32 0 -47.5 16.5t-15.5 43.5v14q0 28 15.5 43.5t47.5 15.5q33 0 48.5 -15.5
t15.5 -43.5v-14q0 -27 -15.5 -43.5t-48.5 -16.5zM419 709q-32 0 -47.5 16.5t-15.5 43.5v14q0 28 15.5 43.5t47.5 15.5t47.5 -15.5t15.5 -43.5v-14q0 -27 -15.5 -43.5t-47.5 -16.5z" />
    <glyph glyph-name="Ugrave" unicode="&#xd9;" horiz-adv-x="651" 
d="M326 -12q-125 0 -191 62t-66 185v408q0 12 11 12h97q12 0 12 -12v-406q0 -69 34 -106.5t103 -37.5t103 37.5t34 106.5v406q0 12 11 12h97q12 0 12 -12v-410q0 -119 -67 -182t-190 -63zM316 709q-8 0 -13 6l-79 109q-4 5 -2.5 9t7.5 4h92q9 0 13 -8l58 -109q3 -4 1.5 -7.5
t-7.5 -3.5h-70z" />
    <glyph glyph-name="Uhungarumlaut" unicode="&#x170;" horiz-adv-x="651" 
d="M326 -12q-125 0 -191 62t-66 185v408q0 12 11 12h97q12 0 12 -12v-406q0 -69 34 -106.5t103 -37.5t103 37.5t34 106.5v406q0 12 11 12h97q12 0 12 -12v-410q0 -119 -67 -182t-190 -63zM365 709q-13 0 -8 12l46 107q4 9 13 9h83q14 0 7 -13l-59 -107q-5 -8 -15 -8h-67z
M203 709q-13 0 -8 12l46 107q4 9 14 9h82q15 0 7 -13l-59 -107q-5 -8 -14 -8h-68z" />
    <glyph glyph-name="Umacron" unicode="&#x16a;" horiz-adv-x="651" 
d="M326 -12q-125 0 -191 62t-66 185v408q0 12 11 12h97q12 0 12 -12v-406q0 -69 34 -106.5t103 -37.5t103 37.5t34 106.5v406q0 12 11 12h97q12 0 12 -12v-410q0 -119 -67 -182t-190 -63zM211 716q-12 0 -12 12v66q0 12 12 12h229q12 0 12 -12v-66q0 -12 -12 -12h-229z" />
    <glyph glyph-name="Uogonek" unicode="&#x172;" horiz-adv-x="651" 
d="M326 -12q-125 0 -191 62t-66 185v408q0 12 11 12h97q12 0 12 -12v-406q0 -69 34 -106.5t103 -37.5t103 37.5t34 106.5v406q0 12 11 12h97q12 0 12 -12v-410q0 -119 -67 -182t-190 -63zM385 -197q-51 0 -78 23t-27 60v11q0 45 35 78.5t98 50.5l17 -13v-11q-28 -12 -43 -32
t-15 -43v-8q0 -30 37 -30q8 0 14.5 0.5t13.5 1.5q10 2 10 -8v-64q0 -5 -2 -7t-8 -4q-12 -2 -26 -3.5t-26 -1.5z" />
    <glyph glyph-name="Uring" unicode="&#x16e;" horiz-adv-x="651" 
d="M326 -12q-125 0 -191 62t-66 185v408q0 12 11 12h97q12 0 12 -12v-406q0 -69 34 -106.5t103 -37.5t103 37.5t34 106.5v406q0 12 11 12h97q12 0 12 -12v-410q0 -119 -67 -182t-190 -63zM326 673q-56 0 -88.5 27.5t-32.5 78.5q0 52 32.5 79t88.5 27t88.5 -27t32.5 -79
q0 -51 -32 -78.5t-89 -27.5zM326 737q23 0 33 12t10 31t-10 31t-33 12t-33 -12t-10 -31t10 -31t33 -12z" />
    <glyph glyph-name="V" unicode="V" horiz-adv-x="607" 
d="M236 0q-11 0 -14 9l-209 633q-4 13 9 13h105q11 0 14 -9l120 -395q11 -36 21 -72t19 -72h2q9 36 19.5 71.5t20.5 71.5l123 395q3 10 14 10h105q13 0 9 -13l-213 -633q-3 -9 -13 -9h-132z" />
    <glyph glyph-name="W" unicode="W" horiz-adv-x="872" 
d="M207 0q-10 0 -13 10l-177 632q-4 13 11 13h97q11 0 13 -10l96 -358q8 -26 13.5 -55t11 -56.5t10.5 -51.5h2q10 35 20 69.5t21 69.5l76 244l-37 122q-2 6 1.5 9.5t8.5 3.5h98q10 0 12 -10l100 -371q10 -34 18 -68.5t16 -68.5h1q5 24 10.5 53t11.5 58.5t12 55.5l92 354
q2 10 13 10h100q14 0 10 -13l-172 -632q-3 -10 -13 -10h-120q-11 0 -14 10l-58 206q-10 35 -19.5 70t-17.5 68h-2q-10 -33 -19.5 -67t-20.5 -69l-63 -209q-4 -9 -13 -9h-116z" />
    <glyph glyph-name="Wacute" unicode="&#x1e82;" horiz-adv-x="872" 
d="M207 0q-10 0 -13 10l-177 632q-4 13 11 13h97q11 0 13 -10l96 -358q8 -26 13.5 -55t11 -56.5t10.5 -51.5h2q10 35 20 69.5t21 69.5l76 244l-37 122q-2 6 1.5 9.5t8.5 3.5h98q10 0 12 -10l100 -371q10 -34 18 -68.5t16 -68.5h1q5 24 10.5 53t11.5 58.5t12 55.5l92 354
q2 10 13 10h100q14 0 10 -13l-172 -632q-3 -10 -13 -10h-120q-11 0 -14 10l-58 206q-10 35 -19.5 70t-17.5 68h-2q-10 -33 -19.5 -67t-20.5 -69l-63 -209q-4 -9 -13 -9h-116zM372 709q-6 0 -7 3.5t1 7.5l59 109q4 8 13 8h91q6 0 7.5 -4t-1.5 -9l-80 -109q-4 -6 -13 -6h-70z
" />
    <glyph glyph-name="Wcircumflex" unicode="&#x174;" horiz-adv-x="872" 
d="M207 0q-10 0 -13 10l-177 632q-4 13 11 13h97q11 0 13 -10l96 -358q8 -26 13.5 -55t11 -56.5t10.5 -51.5h2q10 35 20 69.5t21 69.5l76 244l-37 122q-2 6 1.5 9.5t8.5 3.5h98q10 0 12 -10l100 -371q10 -34 18 -68.5t16 -68.5h1q5 24 10.5 53t11.5 58.5t12 55.5l92 354
q2 10 13 10h100q14 0 10 -13l-172 -632q-3 -10 -13 -10h-120q-11 0 -14 10l-58 206q-10 35 -19.5 70t-17.5 68h-2q-10 -33 -19.5 -67t-20.5 -69l-63 -209q-4 -9 -13 -9h-116zM304 714q-12 -5 -12 7v63q0 9 8 12l128 59q9 4 17 0l128 -59q8 -3 8 -12v-63q0 -12 -12 -7
l-132 50z" />
    <glyph glyph-name="Wdieresis" unicode="&#x1e84;" horiz-adv-x="872" 
d="M207 0q-10 0 -13 10l-177 632q-4 13 11 13h97q11 0 13 -10l96 -358q8 -26 13.5 -55t11 -56.5t10.5 -51.5h2q10 35 20 69.5t21 69.5l76 244l-37 122q-2 6 1.5 9.5t8.5 3.5h98q10 0 12 -10l100 -371q10 -34 18 -68.5t16 -68.5h1q5 24 10.5 53t11.5 58.5t12 55.5l92 354
q2 10 13 10h100q14 0 10 -13l-172 -632q-3 -10 -13 -10h-120q-11 0 -14 10l-58 206q-10 35 -19.5 70t-17.5 68h-2q-10 -33 -19.5 -67t-20.5 -69l-63 -209q-4 -9 -13 -9h-116zM343 709q-32 0 -47.5 16.5t-15.5 43.5v14q0 28 15.5 43.5t47.5 15.5q33 0 48.5 -15.5t15.5 -43.5
v-14q0 -27 -15.5 -43.5t-48.5 -16.5zM530 709q-32 0 -47.5 16.5t-15.5 43.5v14q0 28 15.5 43.5t47.5 15.5t47.5 -15.5t15.5 -43.5v-14q0 -27 -15.5 -43.5t-47.5 -16.5z" />
    <glyph glyph-name="Wgrave" unicode="&#x1e80;" horiz-adv-x="872" 
d="M207 0q-10 0 -13 10l-177 632q-4 13 11 13h97q11 0 13 -10l96 -358q8 -26 13.5 -55t11 -56.5t10.5 -51.5h2q10 35 20 69.5t21 69.5l76 244l-37 122q-2 6 1.5 9.5t8.5 3.5h98q10 0 12 -10l100 -371q10 -34 18 -68.5t16 -68.5h1q5 24 10.5 53t11.5 58.5t12 55.5l92 354
q2 10 13 10h100q14 0 10 -13l-172 -632q-3 -10 -13 -10h-120q-11 0 -14 10l-58 206q-10 35 -19.5 70t-17.5 68h-2q-10 -33 -19.5 -67t-20.5 -69l-63 -209q-4 -9 -13 -9h-116zM427 709q-8 0 -13 6l-79 109q-4 5 -2.5 9t7.5 4h92q9 0 13 -8l58 -109q3 -4 1.5 -7.5t-7.5 -3.5
h-70z" />
    <glyph glyph-name="X" unicode="X" horiz-adv-x="577" 
d="M13 0q-7 0 -9 4t2 10l211 323l-198 304q-3 6 -1.5 10t8.5 4h116q8 0 13 -7l92 -146q11 -18 22.5 -38t21.5 -39h1q11 20 23 41.5t24 39.5l88 142q5 7 14 7h112q7 0 8.5 -4t-1.5 -10l-197 -305l208 -322q4 -6 2 -10t-9 -4h-116q-9 0 -14 7l-97 155q-12 18 -24.5 40.5
t-23.5 43.5h-2q-11 -20 -23.5 -42t-24.5 -40l-98 -156q-5 -8 -14 -8h-114z" />
    <glyph glyph-name="Y" unicode="Y" horiz-adv-x="563" 
d="M233 0q-11 0 -11 12v214l-214 415q-3 6 -0.5 10t8.5 4h110q11 0 14 -8l89 -189q14 -30 27.5 -60t25.5 -59h1q13 30 26.5 59.5t27.5 60.5l88 188q4 8 14 8h108q6 0 8.5 -4t-0.5 -10l-213 -415v-214q0 -12 -12 -12h-97z" />
    <glyph glyph-name="Yacute" unicode="&#xdd;" horiz-adv-x="563" 
d="M233 0q-11 0 -11 12v214l-214 415q-3 6 -0.5 10t8.5 4h110q11 0 14 -8l89 -189q14 -30 27.5 -60t25.5 -59h1q13 30 26.5 59.5t27.5 60.5l88 188q4 8 14 8h108q6 0 8.5 -4t-0.5 -10l-213 -415v-214q0 -12 -12 -12h-97zM218 709q-6 0 -7 3.5t1 7.5l59 109q4 8 13 8h91
q6 0 7.5 -4t-1.5 -9l-80 -109q-4 -6 -13 -6h-70z" />
    <glyph glyph-name="Ycircumflex" unicode="&#x176;" horiz-adv-x="563" 
d="M233 0q-11 0 -11 12v214l-214 415q-3 6 -0.5 10t8.5 4h110q11 0 14 -8l89 -189q14 -30 27.5 -60t25.5 -59h1q13 30 26.5 59.5t27.5 60.5l88 188q4 8 14 8h108q6 0 8.5 -4t-0.5 -10l-213 -415v-214q0 -12 -12 -12h-97zM149 714q-12 -5 -12 7v63q0 9 8 12l128 59q9 4 17 0
l128 -59q8 -3 8 -12v-63q0 -12 -12 -7l-132 50z" />
    <glyph glyph-name="Ydieresis" unicode="&#x178;" horiz-adv-x="563" 
d="M233 0q-11 0 -11 12v214l-214 415q-3 6 -0.5 10t8.5 4h110q11 0 14 -8l89 -189q14 -30 27.5 -60t25.5 -59h1q13 30 26.5 59.5t27.5 60.5l88 188q4 8 14 8h108q6 0 8.5 -4t-0.5 -10l-213 -415v-214q0 -12 -12 -12h-97zM188 709q-32 0 -47.5 16.5t-15.5 43.5v14
q0 28 15.5 43.5t47.5 15.5q33 0 48.5 -15.5t15.5 -43.5v-14q0 -27 -15.5 -43.5t-48.5 -16.5zM375 709q-32 0 -47.5 16.5t-15.5 43.5v14q0 28 15.5 43.5t47.5 15.5t47.5 -15.5t15.5 -43.5v-14q0 -27 -15.5 -43.5t-47.5 -16.5z" />
    <glyph glyph-name="Ygrave" unicode="&#x1ef2;" horiz-adv-x="563" 
d="M233 0q-11 0 -11 12v214l-214 415q-3 6 -0.5 10t8.5 4h110q11 0 14 -8l89 -189q14 -30 27.5 -60t25.5 -59h1q13 30 26.5 59.5t27.5 60.5l88 188q4 8 14 8h108q6 0 8.5 -4t-0.5 -10l-213 -415v-214q0 -12 -12 -12h-97zM272 709q-8 0 -13 6l-79 109q-4 5 -2.5 9t7.5 4h92
q9 0 13 -8l58 -109q3 -4 1.5 -7.5t-7.5 -3.5h-70z" />
    <glyph glyph-name="Z" unicode="Z" horiz-adv-x="556" 
d="M28 0q-11 0 -11 11v5q0 7 4 15l269 422q15 25 30 48.5t31 46.5v2q-27 -1 -55 -1h-57h-180q-12 0 -12 12v82q0 12 12 12h466q12 0 12 -11v-5q0 -6 -4 -15l-266 -412q-17 -27 -34 -53.5t-35 -52.5v-2q30 2 61 2h63h180q12 0 12 -12v-82q0 -12 -12 -12h-474z" />
    <glyph glyph-name="Zacute" unicode="&#x179;" horiz-adv-x="556" 
d="M28 0q-11 0 -11 11v5q0 7 4 15l269 422q15 25 30 48.5t31 46.5v2q-27 -1 -55 -1h-57h-180q-12 0 -12 12v82q0 12 12 12h466q12 0 12 -11v-5q0 -6 -4 -15l-266 -412q-17 -27 -34 -53.5t-35 -52.5v-2q30 2 61 2h63h180q12 0 12 -12v-82q0 -12 -12 -12h-474zM216 709
q-6 0 -7 3.5t1 7.5l59 109q4 8 13 8h91q6 0 7.5 -4t-1.5 -9l-80 -109q-4 -6 -13 -6h-70z" />
    <glyph glyph-name="Zcaron" unicode="&#x17d;" horiz-adv-x="556" 
d="M28 0q-11 0 -11 11v5q0 7 4 15l269 422q15 25 30 48.5t31 46.5v2q-27 -1 -55 -1h-57h-180q-12 0 -12 12v82q0 12 12 12h466q12 0 12 -11v-5q0 -6 -4 -15l-266 -412q-17 -27 -34 -53.5t-35 -52.5v-2q30 2 61 2h63h180q12 0 12 -12v-82q0 -12 -12 -12h-474zM271 715
l-128 58q-8 4 -8 12v64q0 12 12 6l133 -50l132 50q12 6 12 -6v-64q0 -8 -8 -12l-128 -58q-8 -4 -17 0z" />
    <glyph glyph-name="Zdotaccent" unicode="&#x17b;" horiz-adv-x="556" 
d="M28 0q-11 0 -11 11v5q0 7 4 15l269 422q15 25 30 48.5t31 46.5v2q-27 -1 -55 -1h-57h-180q-12 0 -12 12v82q0 12 12 12h466q12 0 12 -11v-5q0 -6 -4 -15l-266 -412q-17 -27 -34 -53.5t-35 -52.5v-2q30 2 61 2h63h180q12 0 12 -12v-82q0 -12 -12 -12h-474zM280 722
q-34 0 -51.5 17.5t-17.5 46.5v15q0 29 17.5 46.5t51.5 17.5t51 -17.5t17 -46.5v-15q0 -29 -17 -46.5t-51 -17.5z" />
    <glyph glyph-name="a" unicode="a" horiz-adv-x="504" 
d="M353 0q-6 0 -8.5 3.5t-4.5 9.5q-2 10 -5 34.5t-5 45.5l-7 41v200q0 42 -17 59.5t-59 17.5q-76 0 -74 -55q0 -12 -11 -12h-90q-12 0 -13 18q-6 67 45.5 104.5t147.5 37.5q98 0 143.5 -42t45.5 -130v-208q0 -32 1.5 -60t4.5 -51q2 -13 -11 -13h-83zM162 -12q-60 0 -92 36
t-32 103q0 52 20 84.5t65.5 51t121.5 24.5l93 8v-72l-83 -7q-58 -5 -80 -22t-22 -55q0 -29 12 -43.5t37 -14.5q30 0 61 19.5t78 69.5l4 -80q-30 -33 -59 -56t-59 -34.5t-65 -11.5z" />
    <glyph glyph-name="aacute" unicode="&#xe1;" horiz-adv-x="504" 
d="M353 0q-6 0 -8.5 3.5t-4.5 9.5q-2 10 -5 34.5t-5 45.5l-7 41v200q0 42 -17 59.5t-59 17.5q-76 0 -74 -55q0 -12 -11 -12h-90q-12 0 -13 18q-6 67 45.5 104.5t147.5 37.5q98 0 143.5 -42t45.5 -130v-208q0 -32 1.5 -60t4.5 -51q2 -13 -11 -13h-83zM162 -12q-60 0 -92 36
t-32 103q0 52 20 84.5t65.5 51t121.5 24.5l93 8v-72l-83 -7q-58 -5 -80 -22t-22 -55q0 -29 12 -43.5t37 -14.5q30 0 61 19.5t78 69.5l4 -80q-30 -33 -59 -56t-59 -34.5t-65 -11.5zM184 557q-13 0 -7 12l68 125q5 9 15 9h90q6 0 7.5 -4.5t-2.5 -8.5l-90 -126q-4 -7 -13 -7
h-68z" />
    <glyph glyph-name="abreve" unicode="&#x103;" horiz-adv-x="504" 
d="M353 0q-6 0 -8.5 3.5t-4.5 9.5q-2 10 -5 34.5t-5 45.5l-7 41v200q0 42 -17 59.5t-59 17.5q-76 0 -74 -55q0 -12 -11 -12h-90q-12 0 -13 18q-6 67 45.5 104.5t147.5 37.5q98 0 143.5 -42t45.5 -130v-208q0 -32 1.5 -60t4.5 -51q2 -13 -11 -13h-83zM162 -12q-60 0 -92 36
t-32 103q0 52 20 84.5t65.5 51t121.5 24.5l93 8v-72l-83 -7q-58 -5 -80 -22t-22 -55q0 -29 12 -43.5t37 -14.5q30 0 61 19.5t78 69.5l4 -80q-30 -33 -59 -56t-59 -34.5t-65 -11.5zM249 556q-34 0 -59 9.5t-42 21.5t-26 21q-4 4 -4 13v66q0 7 3.5 9.5t9.5 -3.5
q17 -15 47.5 -32.5t70.5 -17.5t70.5 17.5t46.5 32.5q6 6 9.5 3.5t3.5 -9.5v-66q0 -5 -1 -8.5t-4 -6.5q-9 -8 -25.5 -20t-41.5 -21t-58 -9z" />
    <glyph glyph-name="acircumflex" unicode="&#xe2;" horiz-adv-x="504" 
d="M353 0q-6 0 -8.5 3.5t-4.5 9.5q-2 10 -5 34.5t-5 45.5l-7 41v200q0 42 -17 59.5t-59 17.5q-76 0 -74 -55q0 -12 -11 -12h-90q-12 0 -13 18q-6 67 45.5 104.5t147.5 37.5q98 0 143.5 -42t45.5 -130v-208q0 -32 1.5 -60t4.5 -51q2 -13 -11 -13h-83zM162 -12q-60 0 -92 36
t-32 103q0 52 20 84.5t65.5 51t121.5 24.5l93 8v-72l-83 -7q-58 -5 -80 -22t-22 -55q0 -29 12 -43.5t37 -14.5q30 0 61 19.5t78 69.5l4 -80q-30 -33 -59 -56t-59 -34.5t-65 -11.5zM127 550q-13 -7 -13 5v64q0 9 7 13l119 70q9 5 17 0l119 -70q7 -4 7 -13v-64q0 -12 -13 -5
l-121 60z" />
    <glyph glyph-name="adieresis" unicode="&#xe4;" horiz-adv-x="504" 
d="M353 0q-6 0 -8.5 3.5t-4.5 9.5q-2 10 -5 34.5t-5 45.5l-7 41v200q0 42 -17 59.5t-59 17.5q-76 0 -74 -55q0 -12 -11 -12h-90q-12 0 -13 18q-6 67 45.5 104.5t147.5 37.5q98 0 143.5 -42t45.5 -130v-208q0 -32 1.5 -60t4.5 -51q2 -13 -11 -13h-83zM162 -12q-60 0 -92 36
t-32 103q0 52 20 84.5t65.5 51t121.5 24.5l93 8v-72l-83 -7q-58 -5 -80 -22t-22 -55q0 -29 12 -43.5t37 -14.5q30 0 61 19.5t78 69.5l4 -80q-30 -33 -59 -56t-59 -34.5t-65 -11.5zM154 564q-32 0 -47.5 16.5t-15.5 42.5v14q0 28 15.5 44t47.5 16q33 0 48.5 -16t15.5 -44v-14
q0 -26 -15.5 -42.5t-48.5 -16.5zM342 564q-32 0 -48 16.5t-16 42.5v14q0 28 16 44t48 16t47.5 -16t15.5 -44v-14q0 -26 -15.5 -42.5t-47.5 -16.5z" />
    <glyph glyph-name="agrave" unicode="&#xe0;" horiz-adv-x="504" 
d="M353 0q-6 0 -8.5 3.5t-4.5 9.5q-2 10 -5 34.5t-5 45.5l-7 41v200q0 42 -17 59.5t-59 17.5q-76 0 -74 -55q0 -12 -11 -12h-90q-12 0 -13 18q-6 67 45.5 104.5t147.5 37.5q98 0 143.5 -42t45.5 -130v-208q0 -32 1.5 -60t4.5 -51q2 -13 -11 -13h-83zM162 -12q-60 0 -92 36
t-32 103q0 52 20 84.5t65.5 51t121.5 24.5l93 8v-72l-83 -7q-58 -5 -80 -22t-22 -55q0 -29 12 -43.5t37 -14.5q30 0 61 19.5t78 69.5l4 -80q-30 -33 -59 -56t-59 -34.5t-65 -11.5zM243 557q-8 0 -13 7l-90 126q-3 4 -1.5 8.5t7.5 4.5h90q10 0 14 -9l68 -125q6 -12 -6 -12
h-69z" />
    <glyph glyph-name="amacron" unicode="&#x101;" horiz-adv-x="504" 
d="M353 0q-6 0 -8.5 3.5t-4.5 9.5q-2 10 -5 34.5t-5 45.5l-7 41v200q0 42 -17 59.5t-59 17.5q-76 0 -74 -55q0 -12 -11 -12h-90q-12 0 -13 18q-6 67 45.5 104.5t147.5 37.5q98 0 143.5 -42t45.5 -130v-208q0 -32 1.5 -60t4.5 -51q2 -13 -11 -13h-83zM162 -12q-60 0 -92 36
t-32 103q0 52 20 84.5t65.5 51t121.5 24.5l93 8v-72l-83 -7q-58 -5 -80 -22t-22 -55q0 -29 12 -43.5t37 -14.5q30 0 61 19.5t78 69.5l4 -80q-30 -33 -59 -56t-59 -34.5t-65 -11.5zM144 570q-12 0 -12 12v66q0 11 12 11h209q12 0 12 -11v-66q0 -12 -12 -12h-209z" />
    <glyph glyph-name="aogonek" unicode="&#x105;" horiz-adv-x="504" 
d="M353 0q-6 0 -8.5 3.5t-4.5 9.5q-2 10 -5 34.5t-5 45.5l-7 41v200q0 42 -17 59.5t-59 17.5q-76 0 -74 -55q0 -12 -11 -12h-90q-12 0 -13 18q-6 67 45.5 104.5t147.5 37.5q98 0 143.5 -42t45.5 -130v-208q0 -32 1.5 -60t4.5 -51q2 -13 -11 -13h-83zM162 -12q-60 0 -92 36
t-32 103q0 52 20 84.5t65.5 51t121.5 24.5l93 8v-72l-83 -7q-58 -5 -80 -22t-22 -55q0 -29 12 -43.5t37 -14.5q30 0 61 19.5t78 69.5l4 -80q-30 -33 -59 -56t-59 -34.5t-65 -11.5zM393 -197q-51 0 -78 23t-27 60v11q0 45 35 78.5t98 50.5l17 -13v-11q-28 -12 -43 -32
t-15 -43v-8q0 -30 37 -30q8 0 14.5 0.5t13.5 1.5q10 2 10 -8v-64q0 -5 -2 -7t-8 -4q-12 -2 -26 -3.5t-26 -1.5z" />
    <glyph glyph-name="aring" unicode="&#xe5;" horiz-adv-x="504" 
d="M353 0q-6 0 -8.5 3.5t-4.5 9.5q-2 10 -5 34.5t-5 45.5l-7 41v200q0 42 -17 59.5t-59 17.5q-76 0 -74 -55q0 -12 -11 -12h-90q-12 0 -13 18q-6 67 45.5 104.5t147.5 37.5q98 0 143.5 -42t45.5 -130v-208q0 -32 1.5 -60t4.5 -51q2 -13 -11 -13h-83zM162 -12q-60 0 -92 36
t-32 103q0 52 20 84.5t65.5 51t121.5 24.5l93 8v-72l-83 -7q-58 -5 -80 -22t-22 -55q0 -29 12 -43.5t37 -14.5q30 0 61 19.5t78 69.5l4 -80q-30 -33 -59 -56t-59 -34.5t-65 -11.5zM249 553q-56 0 -88.5 27.5t-32.5 78.5q0 52 32.5 79t88.5 27t88.5 -27t32.5 -79
q0 -51 -32 -78.5t-89 -27.5zM249 617q23 0 33 12t10 31q0 20 -10 31.5t-33 11.5t-33 -11.5t-10 -31.5q0 -19 10 -31t33 -12z" />
    <glyph glyph-name="atilde" unicode="&#xe3;" horiz-adv-x="504" 
d="M353 0q-6 0 -8.5 3.5t-4.5 9.5q-2 10 -5 34.5t-5 45.5l-7 41v200q0 42 -17 59.5t-59 17.5q-76 0 -74 -55q0 -12 -11 -12h-90q-12 0 -13 18q-6 67 45.5 104.5t147.5 37.5q98 0 143.5 -42t45.5 -130v-208q0 -32 1.5 -60t4.5 -51q2 -13 -11 -13h-83zM162 -12q-60 0 -92 36
t-32 103q0 52 20 84.5t65.5 51t121.5 24.5l93 8v-72l-83 -7q-58 -5 -80 -22t-22 -55q0 -29 12 -43.5t37 -14.5q30 0 61 19.5t78 69.5l4 -80q-30 -33 -59 -56t-59 -34.5t-65 -11.5zM300 565q-20 0 -37 7t-33 13.5t-35 6.5q-17 0 -35.5 -7t-31.5 -13q-14 -6 -14 8v58
q0 10 7 15q10 8 30 17.5t46 9.5t43 -6.5t31 -14t31 -7.5q18 0 36.5 7t30.5 13q14 7 14 -7v-58q0 -9 -7 -15q-10 -8 -30 -17.5t-46 -9.5z" />
    <glyph glyph-name="ae" unicode="&#xe6;" horiz-adv-x="789" 
d="M160 -12q-58 0 -90 36t-32 103q0 53 20.5 86.5t66 51.5t120.5 25l78 7v37q0 42 -17 59.5t-59 17.5q-38 0 -56.5 -13.5t-17.5 -41.5q0 -12 -11 -12h-90q-12 0 -13 18q-3 44 18 75.5t64 49t103 17.5q53 0 89.5 -16t56.5 -48q24 31 65.5 48t89.5 17q93 0 144 -51.5
t51 -145.5v-74q0 -12 -12 -12h-291v-34q0 -56 22 -81t71 -25q39 0 61.5 13t22.5 35q0 16 12 16h92q12 0 12 -20q0 -67 -52.5 -102.5t-150.5 -35.5q-71 0 -116.5 23.5t-66.5 70.5q-47 -48 -91.5 -71t-92.5 -23zM204 81q25 0 53 16.5t68 55.5q-1 11 -1.5 23t-0.5 24v22l-68 -6
q-58 -5 -80 -22t-22 -55q0 -29 12.5 -43.5t38.5 -14.5zM437 299h186v2q0 56 -21.5 82.5t-67.5 26.5q-48 0 -72.5 -27t-24.5 -82v-2z" />
    <glyph glyph-name="b" unicode="b" horiz-adv-x="540" 
d="M275 -12q-38 0 -70.5 4.5t-66 9.5t-74.5 8v661q0 12 11 12h95q12 0 12 -12v-575q19 -4 40.5 -6.5t40.5 -2.5q54 0 80 28.5t26 85.5v106q0 49 -17 72t-53 23q-29 0 -59.5 -17t-75.5 -57l3 96q44 42 86 61t87 19q73 0 110 -43.5t37 -133.5v-136q0 -102 -52 -152.5
t-160 -50.5z" />
    <glyph glyph-name="c" unicode="c" horiz-adv-x="526" 
d="M270 -12q-106 0 -162.5 52t-56.5 150v113q0 97 57 149t163 52q67 0 113 -21.5t70 -58t22 -83.5q-1 -21 -12 -21h-90q-11 0 -11 16q0 32 -24.5 49.5t-66.5 17.5q-52 0 -77.5 -26.5t-25.5 -85.5v-90q0 -58 25.5 -84.5t76.5 -26.5q44 0 67.5 18.5t23.5 47.5q0 15 11 15h90
q11 0 12 -11q2 -78 -50 -125t-155 -47z" />
    <glyph glyph-name="cacute" unicode="&#x107;" horiz-adv-x="526" 
d="M270 -12q-106 0 -162.5 52t-56.5 150v113q0 97 57 149t163 52q67 0 113 -21.5t70 -58t22 -83.5q-1 -21 -12 -21h-90q-11 0 -11 16q0 32 -24.5 49.5t-66.5 17.5q-52 0 -77.5 -26.5t-25.5 -85.5v-90q0 -58 25.5 -84.5t76.5 -26.5q44 0 67.5 18.5t23.5 47.5q0 15 11 15h90
q11 0 12 -11q2 -78 -50 -125t-155 -47zM199 557q-13 0 -7 12l68 125q5 9 15 9h90q6 0 7.5 -4.5t-2.5 -8.5l-90 -126q-4 -7 -13 -7h-68z" />
    <glyph glyph-name="ccaron" unicode="&#x10d;" horiz-adv-x="526" 
d="M270 -12q-106 0 -162.5 52t-56.5 150v113q0 97 57 149t163 52q67 0 113 -21.5t70 -58t22 -83.5q-1 -21 -12 -21h-90q-11 0 -11 16q0 32 -24.5 49.5t-66.5 17.5q-52 0 -77.5 -26.5t-25.5 -85.5v-90q0 -58 25.5 -84.5t76.5 -26.5q44 0 67.5 18.5t23.5 47.5q0 15 11 15h90
q11 0 12 -11q2 -78 -50 -125t-155 -47zM255 550l-119 69q-7 4 -7 14v63q0 13 13 6l122 -61l121 61q13 7 13 -6v-63q0 -10 -7 -14l-119 -69q-8 -5 -17 0z" />
    <glyph glyph-name="ccedilla" unicode="&#xe7;" horiz-adv-x="526" 
d="M270 -12q-106 0 -162.5 52t-56.5 150v113q0 97 57 149t163 52q67 0 113 -21.5t70 -58t22 -83.5q-1 -21 -12 -21h-90q-11 0 -11 16q0 32 -24.5 49.5t-66.5 17.5q-52 0 -77.5 -26.5t-25.5 -85.5v-90q0 -58 25.5 -84.5t76.5 -26.5q44 0 67.5 18.5t23.5 47.5q0 15 11 15h90
q11 0 12 -11q2 -78 -50 -125t-155 -47zM255 -197q-14 0 -26 1t-24 3q-9 2 -9 10v46q0 10 9 9q6 -1 14.5 -1.5t14.5 -0.5q21 0 30 6t9 16v10q0 14 -8 19t-24 5h-23q-7 0 -7 7q0 5 0.5 11t1.5 10l25 78q2 7 10 7h63q10 0 6 -12l-21 -63h9q27 0 42 -17t15 -46v-16
q0 -40 -26 -61t-81 -21z" />
    <glyph glyph-name="cdotaccent" unicode="&#x10b;" horiz-adv-x="526" 
d="M270 -12q-106 0 -162.5 52t-56.5 150v113q0 97 57 149t163 52q67 0 113 -21.5t70 -58t22 -83.5q-1 -21 -12 -21h-90q-11 0 -11 16q0 32 -24.5 49.5t-66.5 17.5q-52 0 -77.5 -26.5t-25.5 -85.5v-90q0 -58 25.5 -84.5t76.5 -26.5q44 0 67.5 18.5t23.5 47.5q0 15 11 15h90
q11 0 12 -11q2 -78 -50 -125t-155 -47zM264 563q-34 0 -51.5 18t-17.5 46v15q0 29 17.5 46.5t51.5 17.5t51 -17.5t17 -46.5v-15q0 -28 -17 -46t-51 -18z" />
    <glyph glyph-name="d" unicode="d" horiz-adv-x="546" 
d="M197 -12q-70 0 -107 44t-37 134v136q0 101 47 151.5t131 50.5q36 0 78 -9.5t67 -25.5l4 -94q-28 15 -60 22.5t-57 7.5q-46 0 -69 -29t-23 -85v-113q0 -44 17 -66t52 -22q23 0 44.5 9t45.5 27.5t54 48.5l4 -87q-30 -29 -59.5 -52t-61.5 -35.5t-70 -12.5zM394 0
q-11 0 -13 11q-3 16 -5.5 38t-2.5 38l-9 53v531q0 12 12 12h94q12 0 12 -12v-552q0 -17 1 -36.5t2.5 -37.5l2.5 -30q3 -15 -11 -15h-83z" />
    <glyph glyph-name="eth" unicode="&#xf0;" horiz-adv-x="534" 
d="M263 -12q-105 0 -158.5 50t-53.5 148v84q0 99 42.5 146t117.5 47q46 0 89.5 -17.5t74.5 -52.5v-102q-25 35 -60 54t-69 19q-37 0 -57 -26t-20 -80v-70q0 -54 23.5 -77t73.5 -23q51 0 76 29.5t25 89.5v107q6 61 -4 110.5t-35.5 86t-66 62t-95.5 39.5q-11 3 -13.5 7.5
t2.5 10.5l40 56q4 7 9 8t12 -1q87 -19 146.5 -66.5t90 -117.5t30.5 -155v-155q0 -102 -57.5 -156.5t-162.5 -54.5zM194 503q-8 -3 -13 7l-19 37q-3 7 6 12l265 132q8 4 13 -7l18 -37q3 -7 -6 -12z" />
    <glyph glyph-name="dcaron" unicode="&#x10f;" horiz-adv-x="546" 
d="M197 -12q-70 0 -107 44t-37 134v136q0 101 47 151.5t131 50.5q36 0 78 -9.5t67 -25.5l4 -94q-28 15 -60 22.5t-57 7.5q-46 0 -69 -29t-23 -85v-113q0 -44 17 -66t52 -22q23 0 44.5 9t45.5 27.5t54 48.5l4 -87q-30 -29 -59.5 -52t-61.5 -35.5t-70 -12.5zM394 0
q-11 0 -13 11q-3 16 -5.5 38t-2.5 38l-9 53v531q0 12 12 12h94q12 0 12 -12v-552q0 -17 1 -36.5t2.5 -37.5l2.5 -30q3 -15 -11 -15h-83zM547 527q-10 0 -8 10l12 55q-13 5 -20.5 14t-7.5 26v22q0 19 13.5 30.5t38.5 11.5q28 0 41.5 -11t13.5 -31v-23q0 -12 -1.5 -22.5
t-6.5 -23.5l-19 -50q-3 -8 -12 -8h-44z" />
    <glyph glyph-name="dcroat" unicode="&#x111;" horiz-adv-x="549" 
d="M273 551q-12 0 -12 12v58q0 12 12 12h269q12 0 12 -12v-58q0 -12 -12 -12h-60h-209zM197 -12q-70 0 -107 44t-37 134v136q0 101 47 151.5t131 50.5q36 0 78 -9.5t67 -25.5l4 -94q-28 15 -60 22.5t-57 7.5q-46 0 -69 -29t-23 -85v-113q0 -44 17 -66t52 -22q23 0 44.5 9
t45.5 27.5t54 48.5l4 -87q-30 -29 -59.5 -52t-61.5 -35.5t-70 -12.5zM394 0q-11 0 -13 11q-3 16 -5.5 38t-2.5 38l-9 53v531q0 12 12 12h94q12 0 12 -12v-552q0 -17 1 -36.5t2.5 -37.5l2.5 -30q3 -15 -11 -15h-83z" />
    <glyph glyph-name="e" unicode="e" horiz-adv-x="530" 
d="M267 -12q-108 0 -162 47.5t-54 141.5v124q0 100 53.5 151.5t161.5 51.5q106 0 160 -50t54 -146v-78q0 -12 -12 -12h-300v-30q0 -55 23.5 -80.5t76.5 -25.5q41 0 63.5 13t22.5 39q0 12 12 12h92q11 0 12 -11q3 -72 -49.5 -109.5t-153.5 -37.5zM168 298h196v5q0 55 -24 81
t-73 26q-51 0 -75 -26.5t-24 -81.5v-4z" />
    <glyph glyph-name="eacute" unicode="&#xe9;" horiz-adv-x="530" 
d="M267 -12q-108 0 -162 47.5t-54 141.5v124q0 100 53.5 151.5t161.5 51.5q106 0 160 -50t54 -146v-78q0 -12 -12 -12h-300v-30q0 -55 23.5 -80.5t76.5 -25.5q41 0 63.5 13t22.5 39q0 12 12 12h92q11 0 12 -11q3 -72 -49.5 -109.5t-153.5 -37.5zM168 298h196v5q0 55 -24 81
t-73 26q-51 0 -75 -26.5t-24 -81.5v-4zM199 565q-13 0 -7 12l68 125q5 9 15 9h90q6 0 7.5 -4.5t-2.5 -8.5l-90 -126q-4 -7 -13 -7h-68z" />
    <glyph glyph-name="ecaron" unicode="&#x11b;" horiz-adv-x="530" 
d="M267 -12q-108 0 -162 47.5t-54 141.5v124q0 100 53.5 151.5t161.5 51.5q106 0 160 -50t54 -146v-78q0 -12 -12 -12h-300v-30q0 -55 23.5 -80.5t76.5 -25.5q41 0 63.5 13t22.5 39q0 12 12 12h92q11 0 12 -11q3 -72 -49.5 -109.5t-153.5 -37.5zM168 298h196v5q0 55 -24 81
t-73 26q-51 0 -75 -26.5t-24 -81.5v-4zM255 558l-119 69q-7 4 -7 14v63q0 13 13 6l122 -61l121 61q13 7 13 -6v-63q0 -10 -7 -14l-119 -69q-8 -5 -17 0z" />
    <glyph glyph-name="ecircumflex" unicode="&#xea;" horiz-adv-x="530" 
d="M267 -12q-108 0 -162 47.5t-54 141.5v124q0 100 53.5 151.5t161.5 51.5q106 0 160 -50t54 -146v-78q0 -12 -12 -12h-300v-30q0 -55 23.5 -80.5t76.5 -25.5q41 0 63.5 13t22.5 39q0 12 12 12h92q11 0 12 -11q3 -72 -49.5 -109.5t-153.5 -37.5zM168 298h196v5q0 55 -24 81
t-73 26q-51 0 -75 -26.5t-24 -81.5v-4zM142 558q-13 -7 -13 5v64q0 9 7 13l119 70q9 5 17 0l119 -70q7 -4 7 -13v-64q0 -12 -13 -5l-121 60z" />
    <glyph glyph-name="edieresis" unicode="&#xeb;" horiz-adv-x="530" 
d="M267 -12q-108 0 -162 47.5t-54 141.5v124q0 100 53.5 151.5t161.5 51.5q106 0 160 -50t54 -146v-78q0 -12 -12 -12h-300v-30q0 -55 23.5 -80.5t76.5 -25.5q41 0 63.5 13t22.5 39q0 12 12 12h92q11 0 12 -11q3 -72 -49.5 -109.5t-153.5 -37.5zM168 298h196v5q0 55 -24 81
t-73 26q-51 0 -75 -26.5t-24 -81.5v-4zM169 572q-32 0 -47.5 16.5t-15.5 42.5v14q0 28 15.5 44t47.5 16q33 0 48.5 -16t15.5 -44v-14q0 -26 -15.5 -42.5t-48.5 -16.5zM357 572q-32 0 -48 16.5t-16 42.5v14q0 28 16 44t48 16t47.5 -16t15.5 -44v-14q0 -26 -15.5 -42.5
t-47.5 -16.5z" />
    <glyph glyph-name="edotaccent" unicode="&#x117;" horiz-adv-x="530" 
d="M267 -12q-108 0 -162 47.5t-54 141.5v124q0 100 53.5 151.5t161.5 51.5q106 0 160 -50t54 -146v-78q0 -12 -12 -12h-300v-30q0 -55 23.5 -80.5t76.5 -25.5q41 0 63.5 13t22.5 39q0 12 12 12h92q11 0 12 -11q3 -72 -49.5 -109.5t-153.5 -37.5zM168 298h196v5q0 55 -24 81
t-73 26q-51 0 -75 -26.5t-24 -81.5v-4zM264 571q-34 0 -51.5 18t-17.5 46v15q0 29 17.5 46.5t51.5 17.5t51 -17.5t17 -46.5v-15q0 -28 -17 -46t-51 -18z" />
    <glyph glyph-name="egrave" unicode="&#xe8;" horiz-adv-x="530" 
d="M267 -12q-108 0 -162 47.5t-54 141.5v124q0 100 53.5 151.5t161.5 51.5q106 0 160 -50t54 -146v-78q0 -12 -12 -12h-300v-30q0 -55 23.5 -80.5t76.5 -25.5q41 0 63.5 13t22.5 39q0 12 12 12h92q11 0 12 -11q3 -72 -49.5 -109.5t-153.5 -37.5zM168 298h196v5q0 55 -24 81
t-73 26q-51 0 -75 -26.5t-24 -81.5v-4zM258 565q-8 0 -13 7l-90 126q-3 4 -1.5 8.5t7.5 4.5h90q10 0 14 -9l68 -125q6 -12 -6 -12h-69z" />
    <glyph glyph-name="emacron" unicode="&#x113;" horiz-adv-x="530" 
d="M267 -12q-108 0 -162 47.5t-54 141.5v124q0 100 53.5 151.5t161.5 51.5q106 0 160 -50t54 -146v-78q0 -12 -12 -12h-300v-30q0 -55 23.5 -80.5t76.5 -25.5q41 0 63.5 13t22.5 39q0 12 12 12h92q11 0 12 -11q3 -72 -49.5 -109.5t-153.5 -37.5zM168 298h196v5q0 55 -24 81
t-73 26q-51 0 -75 -26.5t-24 -81.5v-4zM159 578q-12 0 -12 12v66q0 11 12 11h209q12 0 12 -11v-66q0 -12 -12 -12h-209z" />
    <glyph glyph-name="eogonek" unicode="&#x119;" horiz-adv-x="530" 
d="M267 -12q-108 0 -162 47.5t-54 141.5v124q0 100 53.5 151.5t161.5 51.5q106 0 160 -50t54 -146v-78q0 -12 -12 -12h-300v-30q0 -55 23.5 -80.5t76.5 -25.5q41 0 63.5 13t22.5 39q0 12 12 12h92q11 0 12 -11q3 -72 -49.5 -109.5t-153.5 -37.5zM168 298h196v5q0 55 -24 81
t-73 26q-51 0 -75 -26.5t-24 -81.5v-4zM330 -196q-51 0 -78 23t-27 60v11q0 45 35 78.5t98 50.5l17 -13v-11q-28 -12 -43 -32t-15 -43v-8q0 -30 37 -30q8 0 14.5 0.5t13.5 1.5q10 2 10 -8v-64q0 -5 -2 -7t-8 -4q-12 -2 -26 -3.5t-26 -1.5z" />
    <glyph glyph-name="f" unicode="f" horiz-adv-x="381" 
d="M114 0q-5 0 -8.5 3.5t-3.5 8.5v381h-74q-4 0 -7.5 3.5t-3.5 8.5v75q0 6 3.5 9t7.5 3h74v42q0 79 45 120t127 41q30 0 58 -4.5t45 -10.5q16 -5 16 -16v-72q0 -7 -4.5 -9.5t-16.5 2.5q-16 6 -37 10t-40 4q-38 0 -56.5 -18t-18.5 -53v-36h129q12 0 12 -12v-75q0 -5 -3 -8.5
t-9 -3.5h-129v-381q0 -5 -3 -8.5t-9 -3.5h-94z" />
    <glyph glyph-name="g" unicode="g" horiz-adv-x="520" 
d="M254 -197q-121 0 -175 31t-54 93q0 38 18.5 68t59.5 50l90 -29q-25 -9 -36.5 -26t-11.5 -39q0 -31 25 -43.5t90 -13.5q70 0 95 13t25 46q0 23 -11.5 34t-36.5 12l-183 11q-37 3 -62.5 26t-25.5 68q0 33 15 57t52 49l72 -33q-20 -7 -28.5 -18.5t-8.5 -24.5q0 -15 9.5 -21
t30.5 -7l161 -10q69 -5 100.5 -40.5t31.5 -102.5q0 -79 -57.5 -114.5t-184.5 -35.5zM264 159q-100 0 -147.5 42.5t-47.5 129.5q0 88 48 130.5t149 42.5q98 0 145 -43t47 -131q0 -87 -47 -129t-147 -42zM264 251q45 0 62.5 18.5t17.5 61.5q0 44 -17.5 63t-62.5 19t-63 -19
t-18 -63q0 -43 18 -61.5t63 -18.5zM396 449l-85 33q3 41 7.5 72.5t8.5 54.5q3 12 12 12h80q14 0 10 -13q-11 -33 -18.5 -69.5t-14.5 -89.5z" />
    <glyph glyph-name="gbreve" unicode="&#x11f;" horiz-adv-x="520" 
d="M254 -197q-121 0 -175 31t-54 93q0 38 18.5 68t59.5 50l90 -29q-25 -9 -36.5 -26t-11.5 -39q0 -31 25 -43.5t90 -13.5q70 0 95 13t25 46q0 23 -11.5 34t-36.5 12l-183 11q-37 3 -62.5 26t-25.5 68q0 33 15 57t52 49l72 -33q-20 -7 -28.5 -18.5t-8.5 -24.5q0 -15 9.5 -21
t30.5 -7l161 -10q69 -5 100.5 -40.5t31.5 -102.5q0 -79 -57.5 -114.5t-184.5 -35.5zM264 159q-100 0 -147.5 42.5t-47.5 129.5q0 88 48 130.5t149 42.5q98 0 145 -43t47 -131q0 -87 -47 -129t-147 -42zM264 251q45 0 62.5 18.5t17.5 61.5q0 44 -17.5 63t-62.5 19t-63 -19
t-18 -63q0 -43 18 -61.5t63 -18.5zM267 556q-34 0 -59 9.5t-42 21.5t-26 21q-4 4 -4 13v66q0 7 3.5 9.5t9.5 -3.5q17 -15 47.5 -32.5t70.5 -17.5t70.5 17.5t46.5 32.5q6 6 9.5 3.5t3.5 -9.5v-66q0 -5 -1 -8.5t-4 -6.5q-9 -8 -25.5 -20t-41.5 -21t-58 -9z" />
    <glyph glyph-name="uni0123" unicode="&#x123;" horiz-adv-x="520" 
d="M254 -197q-121 0 -175 31t-54 93q0 38 18.5 68t59.5 50l90 -29q-25 -9 -36.5 -26t-11.5 -39q0 -31 25 -43.5t90 -13.5q70 0 95 13t25 46q0 23 -11.5 34t-36.5 12l-183 11q-37 3 -62.5 26t-25.5 68q0 33 15 57t52 49l72 -33q-20 -7 -28.5 -18.5t-8.5 -24.5q0 -15 9.5 -21
t30.5 -7l161 -10q69 -5 100.5 -40.5t31.5 -102.5q0 -79 -57.5 -114.5t-184.5 -35.5zM264 159q-100 0 -147.5 42.5t-47.5 129.5q0 88 48 130.5t149 42.5q98 0 145 -43t47 -131q0 -87 -47 -129t-147 -42zM264 251q45 0 62.5 18.5t17.5 61.5q0 44 -17.5 63t-62.5 19t-63 -19
t-18 -63q0 -43 18 -61.5t63 -18.5zM268 559q-30 0 -44.5 13.5t-14.5 37.5v19q0 14 2 26t7 26l22 66q2 7 11 7h50q9 0 7 -11l-15 -68q16 -5 23.5 -17t7.5 -30v-18q0 -24 -15 -37.5t-41 -13.5z" />
    <glyph glyph-name="gdotaccent" unicode="&#x121;" horiz-adv-x="520" 
d="M254 -197q-121 0 -175 31t-54 93q0 38 18.5 68t59.5 50l90 -29q-25 -9 -36.5 -26t-11.5 -39q0 -31 25 -43.5t90 -13.5q70 0 95 13t25 46q0 23 -11.5 34t-36.5 12l-183 11q-37 3 -62.5 26t-25.5 68q0 33 15 57t52 49l72 -33q-20 -7 -28.5 -18.5t-8.5 -24.5q0 -15 9.5 -21
t30.5 -7l161 -10q69 -5 100.5 -40.5t31.5 -102.5q0 -79 -57.5 -114.5t-184.5 -35.5zM264 159q-100 0 -147.5 42.5t-47.5 129.5q0 88 48 130.5t149 42.5q98 0 145 -43t47 -131q0 -87 -47 -129t-147 -42zM264 251q45 0 62.5 18.5t17.5 61.5q0 44 -17.5 63t-62.5 19t-63 -19
t-18 -63q0 -43 18 -61.5t63 -18.5zM267 563q-34 0 -51.5 18t-17.5 46v15q0 29 17.5 46.5t51.5 17.5t51 -17.5t17 -46.5v-15q0 -28 -17 -46t-51 -18z" />
    <glyph glyph-name="h" unicode="h" horiz-adv-x="558" 
d="M389 0q-12 0 -12 12v308q0 42 -16.5 62t-52.5 20q-35 0 -70.5 -21.5t-72.5 -62.5l-4 88q28 30 57 52t61.5 34t70.5 12q72 0 108.5 -40.5t36.5 -124.5v-327q0 -12 -12 -12h-94zM75 0q-11 0 -11 12v659q0 12 11 12h95q12 0 12 -12v-659q0 -12 -12 -12h-95z" />
    <glyph glyph-name="hbar" unicode="&#x127;" horiz-adv-x="562" 
d="M7 551q-12 0 -12 12v58q0 12 12 12h269q12 0 12 -12v-58q0 -12 -12 -12h-209h-60zM392 0q-12 0 -12 12v308q0 42 -16.5 62t-51.5 20t-70.5 -21.5t-72.5 -62.5l-5 88q29 30 58 52t61 34t70 12q72 0 108.5 -40.5t36.5 -124.5v-327q0 -12 -11 -12h-95zM79 0q-12 0 -12 12
v659q0 12 12 12h94q12 0 12 -12v-659q0 -12 -12 -12h-94z" />
    <glyph glyph-name="i" unicode="i" horiz-adv-x="245" 
d="M75 0q-11 0 -11 12v468q0 12 11 12h95q12 0 12 -12v-468q0 -12 -12 -12h-95zM123 563q-34 0 -51.5 18t-17.5 46v15q0 29 17.5 46.5t51.5 17.5t51 -17.5t17 -46.5v-15q0 -28 -17 -46t-51 -18z" />
    <glyph glyph-name="dotlessi" unicode="&#x131;" horiz-adv-x="245" 
d="M75 0q-11 0 -11 12v468q0 12 11 12h95q12 0 12 -12v-468q0 -12 -12 -12h-95z" />
    <glyph glyph-name="iacute" unicode="&#xed;" horiz-adv-x="245" 
d="M75 0q-11 0 -11 12v468q0 12 11 12h95q12 0 12 -12v-468q0 -12 -12 -12h-95zM58 557q-13 0 -7 12l68 125q5 9 15 9h90q6 0 7.5 -4.5t-2.5 -8.5l-90 -126q-4 -7 -13 -7h-68z" />
    <glyph glyph-name="icircumflex" unicode="&#xee;" horiz-adv-x="245" 
d="M75 0q-11 0 -11 12v468q0 12 11 12h95q12 0 12 -12v-468q0 -12 -12 -12h-95zM1 550q-13 -7 -13 5v64q0 9 7 13l119 70q9 5 17 0l119 -70q7 -4 7 -13v-64q0 -12 -13 -5l-121 60z" />
    <glyph glyph-name="idieresis" unicode="&#xef;" horiz-adv-x="245" 
d="M75 0q-11 0 -11 12v468q0 12 11 12h95q12 0 12 -12v-468q0 -12 -12 -12h-95zM28 564q-32 0 -47.5 16.5t-15.5 42.5v14q0 28 15.5 44t47.5 16q33 0 48.5 -16t15.5 -44v-14q0 -26 -15.5 -42.5t-48.5 -16.5zM216 564q-32 0 -48 16.5t-16 42.5v14q0 28 16 44t48 16t47.5 -16
t15.5 -44v-14q0 -26 -15.5 -42.5t-47.5 -16.5z" />
    <glyph glyph-name="i.loclTRK" horiz-adv-x="245" 
d="M75 0q-11 0 -11 12v468q0 12 11 12h95q12 0 12 -12v-468q0 -12 -12 -12h-95zM123 563q-34 0 -51.5 18t-17.5 46v15q0 29 17.5 46.5t51.5 17.5t51 -17.5t17 -46.5v-15q0 -28 -17 -46t-51 -18z" />
    <glyph glyph-name="igrave" unicode="&#xec;" horiz-adv-x="245" 
d="M75 0q-11 0 -11 12v468q0 12 11 12h95q12 0 12 -12v-468q0 -12 -12 -12h-95zM117 557q-8 0 -13 7l-90 126q-3 4 -1.5 8.5t7.5 4.5h90q10 0 14 -9l68 -125q6 -12 -6 -12h-69z" />
    <glyph glyph-name="ij" unicode="&#x133;" horiz-adv-x="491" 
d="M75 0q-11 0 -11 12v468q0 12 11 12h95q12 0 12 -12v-468q0 -12 -12 -12h-95zM123 563q-34 0 -51.5 18t-17.5 46v15q0 29 17.5 46.5t51.5 17.5t51 -17.5t17 -46.5v-15q0 -28 -17 -46t-51 -18zM301 -191q-9 -5 -15 3l-57 67q-3 5 -2.5 9t5.5 8q25 17 42 42.5t26 59.5t9 78
v404q0 6 3.5 9t7.5 3h95q5 0 8.5 -3t3.5 -9v-406q0 -65 -13 -114t-40.5 -86t-72.5 -65zM369 563q-34 0 -51.5 18t-17.5 46v15q0 29 17.5 46.5t51.5 17.5t51 -17.5t17 -46.5v-15q0 -28 -17 -46t-51 -18z" />
    <glyph glyph-name="imacron" unicode="&#x12b;" horiz-adv-x="245" 
d="M75 0q-11 0 -11 12v468q0 12 11 12h95q12 0 12 -12v-468q0 -12 -12 -12h-95zM18 570q-12 0 -12 12v66q0 11 12 11h209q12 0 12 -11v-66q0 -12 -12 -12h-209z" />
    <glyph glyph-name="iogonek" unicode="&#x12f;" horiz-adv-x="245" 
d="M75 0q-11 0 -11 12v468q0 12 11 12h95q12 0 12 -12v-468q0 -12 -12 -12h-95zM123 563q-34 0 -51.5 18t-17.5 46v15q0 29 17.5 46.5t51.5 17.5t51 -17.5t17 -46.5v-15q0 -28 -17 -46t-51 -18zM124 -197q-51 0 -78 23t-27 60v11q0 45 35 78.5t98 50.5l17 -13v-11
q-28 -12 -43 -32t-15 -43v-8q0 -30 37 -30q8 0 14.5 0.5t13.5 1.5q10 2 10 -8v-64q0 -5 -2 -7t-8 -4q-12 -2 -26 -3.5t-26 -1.5z" />
    <glyph glyph-name="j" unicode="j" horiz-adv-x="246" 
d="M56 -191q-9 -5 -15 3l-57 67q-3 5 -2.5 9t5.5 8q25 17 42 42.5t26 59.5t9 78v404q0 6 3.5 9t7.5 3h95q5 0 8.5 -3t3.5 -9v-406q0 -65 -13 -114t-40.5 -86t-72.5 -65zM124 563q-34 0 -51.5 18t-17.5 46v15q0 29 17.5 46.5t51.5 17.5t51 -17.5t17 -46.5v-15q0 -28 -17 -46
t-51 -18z" />
    <glyph glyph-name="uni0237" unicode="&#x237;" horiz-adv-x="246" 
d="M56 -191q-9 -5 -15 3l-57 67q-3 5 -2.5 9t5.5 8q25 17 42 42.5t26 59.5t9 78v404q0 6 3.5 9t7.5 3h95q5 0 8.5 -3t3.5 -9v-406q0 -65 -13 -114t-40.5 -86t-72.5 -65z" />
    <glyph glyph-name="k" unicode="k" horiz-adv-x="516" 
d="M75 0q-11 0 -11 12v659q0 12 11 12h95q12 0 12 -12v-244q0 -34 -1 -68.5t-2 -69.5h2q17 22 34.5 44t35.5 43l96 110q4 6 14 6h119q9 0 10.5 -4t-3.5 -10l-166 -183l180 -281q4 -6 2 -10t-10 -4h-111q-9 0 -14 8l-129 204l-57 -60v-140q0 -12 -12 -12h-95z" />
    <glyph glyph-name="uni0137" unicode="&#x137;" horiz-adv-x="516" 
d="M75 0q-11 0 -11 12v659q0 12 11 12h95q12 0 12 -12v-244q0 -34 -1 -68.5t-2 -69.5h2q17 22 34.5 44t35.5 43l96 110q4 6 14 6h119q9 0 10.5 -4t-3.5 -10l-166 -183l180 -281q4 -6 2 -10t-10 -4h-111q-9 0 -14 8l-129 204l-57 -60v-140q0 -12 -12 -12h-95zM231 -251
q-10 0 -8 11l14 68q-15 6 -22.5 17.5t-7.5 30.5v17q0 25 15 38t40 13q31 0 45.5 -13t14.5 -38v-19q0 -13 -2.5 -25.5t-6.5 -26.5l-22 -65q-3 -8 -12 -8h-48z" />
    <glyph glyph-name="kgreenlandic" unicode="&#x138;" horiz-adv-x="516" 
d="M75 0q-11 0 -11 12v468q0 12 11 12h95q12 0 12 -12v-53q0 -34 -1 -68.5t-2 -69.5h2q17 22 34.5 44t35.5 43l96 110q4 6 14 6h119q9 0 10.5 -4t-3.5 -10l-166 -183l180 -281q4 -6 2 -10t-10 -4h-111q-9 0 -14 8l-129 204l-57 -60v-140q0 -12 -12 -12h-95z" />
    <glyph glyph-name="l" unicode="l" horiz-adv-x="245" 
d="M75 0q-11 0 -11 12v659q0 12 11 12h95q12 0 12 -12v-659q0 -12 -12 -12h-95z" />
    <glyph glyph-name="lacute" unicode="&#x13a;" horiz-adv-x="245" 
d="M75 0q-11 0 -11 12v659q0 12 11 12h95q12 0 12 -12v-659q0 -12 -12 -12h-95zM58 737q-6 0 -7 3.5t1 7.5l59 109q4 8 13 8h91q6 0 7.5 -4t-1.5 -9l-80 -109q-4 -6 -13 -6h-70z" />
    <glyph glyph-name="lcaron" unicode="&#x13e;" horiz-adv-x="246" 
d="M75 0q-11 0 -11 12v659q0 12 11 12h95q12 0 12 -12v-659q0 -12 -12 -12h-95zM247 527q-10 0 -8 10l12 55q-13 5 -20.5 14t-7.5 26v22q0 19 13.5 30.5t38.5 11.5q28 0 41.5 -11t13.5 -31v-23q0 -12 -1.5 -22.5t-6.5 -23.5l-19 -50q-3 -8 -12 -8h-44z" />
    <glyph glyph-name="uni013C" unicode="&#x13c;" horiz-adv-x="245" 
d="M75 0q-11 0 -11 12v659q0 12 11 12h95q12 0 12 -12v-659q0 -12 -12 -12h-95zM90 -251q-10 0 -8 11l14 68q-15 6 -22.5 17.5t-7.5 30.5v17q0 25 15 38t40 13q31 0 45.5 -13t14.5 -38v-19q0 -13 -2.5 -25.5t-6.5 -26.5l-22 -65q-3 -8 -12 -8h-48z" />
    <glyph glyph-name="lslash" unicode="&#x142;" horiz-adv-x="249" 
d="M7 325q-6 -2 -10 1t-4 9v68q0 10 9 13l240 97q6 2 10 -1t4 -9v-67q0 -10 -10 -13l-180 -72zM77 0q-11 0 -11 12v659q0 12 11 12h95q12 0 12 -12v-659q0 -12 -12 -12h-95z" />
    <glyph glyph-name="m" unicode="m" horiz-adv-x="840" 
d="M75 0q-11 0 -11 12v355q0 29 -1.5 58t-5.5 54q-2 13 12 13h84q10 0 12 -9q2 -14 5 -30t4 -34q39 40 78 62.5t89 22.5q53 0 82.5 -22t42.5 -65q41 41 81.5 64t91.5 23q68 0 102.5 -40.5t34.5 -123.5v-328q0 -12 -11 -12h-95q-12 0 -12 12v308q0 41 -14.5 61.5t-47.5 20.5
q-28 0 -55.5 -16.5t-61.5 -48.5v-325q0 -12 -12 -12h-94q-12 0 -12 12v308q0 41 -15 61.5t-47 20.5q-28 0 -55.5 -16.5t-61.5 -48.5v-325q0 -12 -12 -12h-95z" />
    <glyph glyph-name="n" unicode="n" horiz-adv-x="558" 
d="M389 0q-12 0 -12 12v308q0 42 -17 62t-52 20t-68.5 -20.5t-76.5 -63.5l-4 87q29 31 58.5 53t61.5 34t70 12q72 0 109 -40.5t37 -124.5v-327q0 -12 -12 -12h-94zM75 0q-11 0 -11 12v355q0 28 -2.5 59t-4.5 52q-2 14 12 14h84q10 0 13 -11q2 -8 4 -23.5t4 -32.5t2 -30
l6 -40v-343q0 -12 -12 -12h-95z" />
    <glyph glyph-name="nacute" unicode="&#x144;" horiz-adv-x="558" 
d="M389 0q-12 0 -12 12v308q0 42 -17 62t-52 20t-68.5 -20.5t-76.5 -63.5l-4 87q29 31 58.5 53t61.5 34t70 12q72 0 109 -40.5t37 -124.5v-327q0 -12 -12 -12h-94zM75 0q-11 0 -11 12v355q0 28 -2.5 59t-4.5 52q-2 14 12 14h84q10 0 13 -11q2 -8 4 -23.5t4 -32.5t2 -30
l6 -40v-343q0 -12 -12 -12h-95zM216 557q-13 0 -7 12l68 125q5 9 15 9h90q6 0 7.5 -4.5t-2.5 -8.5l-90 -126q-4 -7 -13 -7h-68z" />
    <glyph glyph-name="ncaron" unicode="&#x148;" horiz-adv-x="558" 
d="M389 0q-12 0 -12 12v308q0 42 -17 62t-52 20t-68.5 -20.5t-76.5 -63.5l-4 87q29 31 58.5 53t61.5 34t70 12q72 0 109 -40.5t37 -124.5v-327q0 -12 -12 -12h-94zM75 0q-11 0 -11 12v355q0 28 -2.5 59t-4.5 52q-2 14 12 14h84q10 0 13 -11q2 -8 4 -23.5t4 -32.5t2 -30
l6 -40v-343q0 -12 -12 -12h-95zM272 550l-119 69q-7 4 -7 14v63q0 13 13 6l122 -61l121 61q13 7 13 -6v-63q0 -10 -7 -14l-119 -69q-8 -5 -17 0z" />
    <glyph glyph-name="uni0146" unicode="&#x146;" horiz-adv-x="558" 
d="M389 0q-12 0 -12 12v308q0 42 -17 62t-52 20t-68.5 -20.5t-76.5 -63.5l-4 87q29 31 58.5 53t61.5 34t70 12q72 0 109 -40.5t37 -124.5v-327q0 -12 -12 -12h-94zM75 0q-11 0 -11 12v355q0 28 -2.5 59t-4.5 52q-2 14 12 14h84q10 0 13 -11q2 -8 4 -23.5t4 -32.5t2 -30
l6 -40v-343q0 -12 -12 -12h-95zM253 -251q-10 0 -8 11l14 68q-15 6 -22.5 17.5t-7.5 30.5v17q0 25 15 38t40 13q31 0 45.5 -13t14.5 -38v-19q0 -13 -2.5 -25.5t-6.5 -26.5l-22 -65q-3 -8 -12 -8h-48z" />
    <glyph glyph-name="eng" unicode="&#x14b;" horiz-adv-x="558" 
d="M369 -191q-8 -5 -15 3l-56 67q-4 5 -3 9t5 8q26 18 43 43t25.5 59t8.5 78v244q0 42 -17 62t-52 20q-30 0 -59.5 -16t-66.5 -51v-323q0 -12 -12 -12h-95q-11 0 -11 12v355q0 28 -2.5 59t-4.5 52q-2 14 12 14h84q10 0 13 -11q2 -10 4.5 -27t3.5 -34q41 40 82 62t93 22
q72 0 109 -40.5t37 -124.5v-265q0 -66 -13 -115.5t-40.5 -86t-72.5 -63.5z" />
    <glyph glyph-name="ntilde" unicode="&#xf1;" horiz-adv-x="558" 
d="M389 0q-12 0 -12 12v308q0 42 -17 62t-52 20t-68.5 -20.5t-76.5 -63.5l-4 87q29 31 58.5 53t61.5 34t70 12q72 0 109 -40.5t37 -124.5v-327q0 -12 -12 -12h-94zM75 0q-11 0 -11 12v355q0 28 -2.5 59t-4.5 52q-2 14 12 14h84q10 0 13 -11q2 -8 4 -23.5t4 -32.5t2 -30
l6 -40v-343q0 -12 -12 -12h-95zM332 565q-20 0 -37 7t-33 13.5t-35 6.5q-17 0 -35.5 -7t-31.5 -13q-14 -6 -14 8v58q0 10 7 15q10 8 30 17.5t46 9.5t43 -6.5t31 -14t31 -7.5q18 0 36.5 7t30.5 13q14 7 14 -7v-58q0 -9 -7 -15q-10 -8 -30 -17.5t-46 -9.5z" />
    <glyph glyph-name="o" unicode="o" horiz-adv-x="544" 
d="M272 -12q-106 0 -163.5 50.5t-57.5 153.5v108q0 102 57 153t164 51q106 0 163 -51t57 -153v-108q0 -103 -56.5 -153.5t-163.5 -50.5zM272 89q54 0 78 27.5t24 86.5v86q0 59 -24 86.5t-78 27.5t-78.5 -27.5t-24.5 -86.5v-86q0 -59 24.5 -86.5t78.5 -27.5z" />
    <glyph glyph-name="oacute" unicode="&#xf3;" horiz-adv-x="544" 
d="M272 -12q-106 0 -163.5 50.5t-57.5 153.5v108q0 102 57 153t164 51q106 0 163 -51t57 -153v-108q0 -103 -56.5 -153.5t-163.5 -50.5zM272 89q54 0 78 27.5t24 86.5v86q0 59 -24 86.5t-78 27.5t-78.5 -27.5t-24.5 -86.5v-86q0 -59 24.5 -86.5t78.5 -27.5zM207 557
q-13 0 -7 12l68 125q5 9 15 9h90q6 0 7.5 -4.5t-2.5 -8.5l-90 -126q-4 -7 -13 -7h-68z" />
    <glyph glyph-name="ocircumflex" unicode="&#xf4;" horiz-adv-x="544" 
d="M272 -12q-106 0 -163.5 50.5t-57.5 153.5v108q0 102 57 153t164 51q106 0 163 -51t57 -153v-108q0 -103 -56.5 -153.5t-163.5 -50.5zM272 89q54 0 78 27.5t24 86.5v86q0 59 -24 86.5t-78 27.5t-78.5 -27.5t-24.5 -86.5v-86q0 -59 24.5 -86.5t78.5 -27.5zM150 550
q-13 -7 -13 5v64q0 9 7 13l119 70q9 5 17 0l119 -70q7 -4 7 -13v-64q0 -12 -13 -5l-121 60z" />
    <glyph glyph-name="odieresis" unicode="&#xf6;" horiz-adv-x="544" 
d="M272 -12q-106 0 -163.5 50.5t-57.5 153.5v108q0 102 57 153t164 51q106 0 163 -51t57 -153v-108q0 -103 -56.5 -153.5t-163.5 -50.5zM272 89q54 0 78 27.5t24 86.5v86q0 59 -24 86.5t-78 27.5t-78.5 -27.5t-24.5 -86.5v-86q0 -59 24.5 -86.5t78.5 -27.5zM177 564
q-32 0 -47.5 16.5t-15.5 42.5v14q0 28 15.5 44t47.5 16q33 0 48.5 -16t15.5 -44v-14q0 -26 -15.5 -42.5t-48.5 -16.5zM365 564q-32 0 -48 16.5t-16 42.5v14q0 28 16 44t48 16t47.5 -16t15.5 -44v-14q0 -26 -15.5 -42.5t-47.5 -16.5z" />
    <glyph glyph-name="ograve" unicode="&#xf2;" horiz-adv-x="544" 
d="M272 -12q-106 0 -163.5 50.5t-57.5 153.5v108q0 102 57 153t164 51q106 0 163 -51t57 -153v-108q0 -103 -56.5 -153.5t-163.5 -50.5zM272 89q54 0 78 27.5t24 86.5v86q0 59 -24 86.5t-78 27.5t-78.5 -27.5t-24.5 -86.5v-86q0 -59 24.5 -86.5t78.5 -27.5zM266 557
q-8 0 -13 7l-90 126q-3 4 -1.5 8.5t7.5 4.5h90q10 0 14 -9l68 -125q6 -12 -6 -12h-69z" />
    <glyph glyph-name="ohungarumlaut" unicode="&#x151;" horiz-adv-x="544" 
d="M272 -12q-106 0 -163.5 50.5t-57.5 153.5v108q0 102 57 153t164 51q106 0 163 -51t57 -153v-108q0 -103 -56.5 -153.5t-163.5 -50.5zM272 89q54 0 78 27.5t24 86.5v86q0 59 -24 86.5t-78 27.5t-78.5 -27.5t-24.5 -86.5v-86q0 -59 24.5 -86.5t78.5 -27.5zM148 557
q-13 0 -8 12l55 130q4 10 14 10h85q14 0 7 -14l-71 -130q-5 -8 -14 -8h-68zM304 557q-13 0 -7 12l54 130q4 10 14 10h86q14 0 6 -14l-71 -130q-5 -8 -13 -8h-69z" />
    <glyph glyph-name="omacron" unicode="&#x14d;" horiz-adv-x="544" 
d="M272 -12q-106 0 -163.5 50.5t-57.5 153.5v108q0 102 57 153t164 51q106 0 163 -51t57 -153v-108q0 -103 -56.5 -153.5t-163.5 -50.5zM272 89q54 0 78 27.5t24 86.5v86q0 59 -24 86.5t-78 27.5t-78.5 -27.5t-24.5 -86.5v-86q0 -59 24.5 -86.5t78.5 -27.5zM167 570
q-12 0 -12 12v66q0 11 12 11h209q12 0 12 -11v-66q0 -12 -12 -12h-209z" />
    <glyph glyph-name="oslash" unicode="&#xf8;" horiz-adv-x="544" 
d="M21 -51q-7 0 -9 4.5t2 9.5l90 124l45 46l193 271l32 66l48 65q5 8 14 8h87q7 0 9 -4.5t-2 -10.5l-86 -119l-52 -54l-187 -264l-31 -63l-52 -72q-5 -7 -15 -7h-86zM272 -12q-106 0 -163.5 50.5t-57.5 153.5v108q0 102 57 153t164 51q106 0 163 -51t57 -153v-108
q0 -103 -56.5 -153.5t-163.5 -50.5zM272 89q54 0 78 27.5t24 86.5v86q0 59 -24 86.5t-78 27.5t-78.5 -27.5t-24.5 -86.5v-86q0 -59 24.5 -86.5t78.5 -27.5z" />
    <glyph glyph-name="otilde" unicode="&#xf5;" horiz-adv-x="544" 
d="M272 -12q-106 0 -163.5 50.5t-57.5 153.5v108q0 102 57 153t164 51q106 0 163 -51t57 -153v-108q0 -103 -56.5 -153.5t-163.5 -50.5zM272 89q54 0 78 27.5t24 86.5v86q0 59 -24 86.5t-78 27.5t-78.5 -27.5t-24.5 -86.5v-86q0 -59 24.5 -86.5t78.5 -27.5zM323 565
q-20 0 -37 7t-33 13.5t-35 6.5q-17 0 -35.5 -7t-31.5 -13q-14 -6 -14 8v58q0 10 7 15q10 8 30 17.5t46 9.5t43 -6.5t31 -14t31 -7.5q18 0 36.5 7t30.5 13q14 7 14 -7v-58q0 -9 -7 -15q-10 -8 -30 -17.5t-46 -9.5z" />
    <glyph glyph-name="oe" unicode="&#x153;" horiz-adv-x="846" 
d="M263 -12q-101 0 -156.5 52.5t-55.5 149.5v112q0 98 55.5 150t155.5 52q56 0 97 -17t65 -55q27 37 70.5 54.5t96.5 17.5q100 0 152.5 -50t52.5 -146v-78q0 -12 -11 -12h-300v-30q0 -55 23.5 -80.5t76.5 -25.5q40 0 63 13.5t23 35.5q0 15 12 15h92q12 0 12 -13
q0 -71 -52.5 -108t-149.5 -37q-56 0 -95 15.5t-68 54.5q-29 -39 -67 -54.5t-92 -15.5zM269 89q50 0 74.5 27t24.5 84v92q0 57 -24.5 84t-74.5 27t-75 -27t-25 -84v-92q0 -57 25 -84t75 -27zM485 298h195v4q0 55 -23.5 81.5t-72.5 26.5q-51 0 -75 -27t-24 -82v-3z" />
    <glyph glyph-name="p" unicode="p" horiz-adv-x="540" 
d="M310 -12q-35 0 -75.5 9.5t-67.5 25.5l-2 94q26 -15 56 -22.5t56 -7.5q48 0 70 29t22 85v106q0 49 -17 72t-53 23q-31 0 -63 -19t-76 -59l-5 88q29 28 58 48.5t60 32t67 11.5q73 0 110 -43.5t37 -133.5v-137q0 -102 -45.5 -152t-131.5 -50zM75 -185q-11 0 -11 12v546
q0 26 -2 54t-5 52q-1 13 12 13h84q11 0 13 -11q2 -8 4 -20.5t3 -25.5t1 -21l8 -56v-531q0 -12 -12 -12h-95z" />
    <glyph glyph-name="thorn" unicode="&#xfe;" horiz-adv-x="540" 
d="M75 -185q-11 0 -11 12v844q0 12 11 12h95q12 0 12 -12v-234q38 33 75.5 50t82.5 17q73 0 110 -43.5t37 -133.5v-137q0 -102 -45.5 -152t-131.5 -50q-31 0 -66 7.5t-62 20.5v-189q0 -12 -12 -12h-95zM277 87q48 0 70 29t22 85v106q0 49 -17 72t-53 23q-26 0 -53 -14
t-64 -45v-235q22 -10 47.5 -15.5t47.5 -5.5z" />
    <glyph glyph-name="q" unicode="q" horiz-adv-x="545" 
d="M375 -185q-12 0 -12 12v569q-21 4 -44.5 6.5t-44.5 2.5q-54 0 -78.5 -27.5t-24.5 -86.5v-106q0 -50 16.5 -72.5t52.5 -22.5q32 0 63 16.5t74 53.5l-2 -94q-43 -41 -86 -59.5t-90 -18.5q-74 0 -110 43.5t-36 134.5v135q0 103 52.5 153t159.5 50q41 0 75 -4.5t68 -10.5
t73 -9v-653q0 -12 -11 -12h-95z" />
    <glyph glyph-name="r" unicode="r" horiz-adv-x="365" 
d="M75 0q-11 0 -11 12v357q0 30 -1.5 57t-5.5 53q-2 13 12 13h84q11 0 13 -10q4 -18 6 -41t2 -41l8 -58v-330q0 -12 -12 -12h-95zM171 298l-6 102q21 30 47.5 53.5t54 37t50.5 13.5q17 0 27 -3q9 -3 9 -13q2 -24 1.5 -51.5t-3.5 -51.5q-2 -13 -15 -10q-6 1 -15 2t-19 1
q-22 0 -45.5 -9.5t-45 -27.5t-40.5 -43z" />
    <glyph glyph-name="racute" unicode="&#x155;" horiz-adv-x="365" 
d="M75 0q-11 0 -11 12v357q0 30 -1.5 57t-5.5 53q-2 13 12 13h84q11 0 13 -10q4 -18 6 -41t2 -41l8 -58v-330q0 -12 -12 -12h-95zM171 298l-6 102q21 30 47.5 53.5t54 37t50.5 13.5q17 0 27 -3q9 -3 9 -13q2 -24 1.5 -51.5t-3.5 -51.5q-2 -13 -15 -10q-6 1 -15 2t-19 1
q-22 0 -45.5 -9.5t-45 -27.5t-40.5 -43zM144 557q-13 0 -7 12l68 125q5 9 15 9h90q6 0 7.5 -4.5t-2.5 -8.5l-90 -126q-4 -7 -13 -7h-68z" />
    <glyph glyph-name="rcaron" unicode="&#x159;" horiz-adv-x="365" 
d="M75 0q-11 0 -11 12v357q0 30 -1.5 57t-5.5 53q-2 13 12 13h84q11 0 13 -10q4 -18 6 -41t2 -41l8 -58v-330q0 -12 -12 -12h-95zM171 298l-6 102q21 30 47.5 53.5t54 37t50.5 13.5q17 0 27 -3q9 -3 9 -13q2 -24 1.5 -51.5t-3.5 -51.5q-2 -13 -15 -10q-6 1 -15 2t-19 1
q-22 0 -45.5 -9.5t-45 -27.5t-40.5 -43zM201 550l-119 69q-7 4 -7 14v63q0 13 13 6l122 -61l121 61q13 7 13 -6v-63q0 -10 -7 -14l-119 -69q-8 -5 -17 0z" />
    <glyph glyph-name="uni0157" unicode="&#x157;" horiz-adv-x="365" 
d="M75 0q-11 0 -11 12v357q0 30 -1.5 57t-5.5 53q-2 13 12 13h84q11 0 13 -10q4 -18 6 -41t2 -41l8 -58v-330q0 -12 -12 -12h-95zM171 298l-6 102q21 30 47.5 53.5t54 37t50.5 13.5q17 0 27 -3q9 -3 9 -13q2 -24 1.5 -51.5t-3.5 -51.5q-2 -13 -15 -10q-6 1 -15 2t-19 1
q-22 0 -45.5 -9.5t-45 -27.5t-40.5 -43zM92 -251q-10 0 -8 11l14 68q-15 6 -22.5 17.5t-7.5 30.5v17q0 25 15 38t40 13q31 0 45.5 -13t14.5 -38v-19q0 -13 -2.5 -25.5t-6.5 -26.5l-22 -65q-3 -8 -12 -8h-48z" />
    <glyph glyph-name="s" unicode="s" horiz-adv-x="471" 
d="M235 -12q-99 0 -145.5 39t-43.5 121q0 11 12 11h90q10 0 10 -11q0 -36 19 -53t58 -17q41 0 61 13t20 40q0 19 -13 32.5t-42 25.5l-114 48q-52 22 -74.5 52t-22.5 78q0 68 44.5 102.5t137.5 34.5q95 0 143 -36t48 -105q0 -11 -12 -11h-90q-12 0 -12 16q0 22 -19 34.5
t-53 12.5q-35 0 -52 -12t-17 -36q0 -18 10.5 -28t41.5 -23l114 -48q53 -22 76.5 -52.5t23.5 -79.5q0 -73 -51 -110.5t-148 -37.5z" />
    <glyph glyph-name="sacute" unicode="&#x15b;" horiz-adv-x="471" 
d="M235 -12q-99 0 -145.5 39t-43.5 121q0 11 12 11h90q10 0 10 -11q0 -36 19 -53t58 -17q41 0 61 13t20 40q0 19 -13 32.5t-42 25.5l-114 48q-52 22 -74.5 52t-22.5 78q0 68 44.5 102.5t137.5 34.5q95 0 143 -36t48 -105q0 -11 -12 -11h-90q-12 0 -12 16q0 22 -19 34.5
t-53 12.5q-35 0 -52 -12t-17 -36q0 -18 10.5 -28t41.5 -23l114 -48q53 -22 76.5 -52.5t23.5 -79.5q0 -73 -51 -110.5t-148 -37.5zM169 557q-13 0 -7 12l68 125q5 9 15 9h90q6 0 7.5 -4.5t-2.5 -8.5l-90 -126q-4 -7 -13 -7h-68z" />
    <glyph glyph-name="scaron" unicode="&#x161;" horiz-adv-x="471" 
d="M235 -12q-99 0 -145.5 39t-43.5 121q0 11 12 11h90q10 0 10 -11q0 -36 19 -53t58 -17q41 0 61 13t20 40q0 19 -13 32.5t-42 25.5l-114 48q-52 22 -74.5 52t-22.5 78q0 68 44.5 102.5t137.5 34.5q95 0 143 -36t48 -105q0 -11 -12 -11h-90q-12 0 -12 16q0 22 -19 34.5
t-53 12.5q-35 0 -52 -12t-17 -36q0 -18 10.5 -28t41.5 -23l114 -48q53 -22 76.5 -52.5t23.5 -79.5q0 -73 -51 -110.5t-148 -37.5zM225 550l-119 69q-7 4 -7 14v63q0 13 13 6l122 -61l121 61q13 7 13 -6v-63q0 -10 -7 -14l-119 -69q-8 -5 -17 0z" />
    <glyph glyph-name="scedilla" unicode="&#x15f;" horiz-adv-x="471" 
d="M235 -12q-99 0 -145.5 39t-43.5 121q0 11 12 11h90q10 0 10 -11q0 -36 19 -53t58 -17q41 0 61 13t20 40q0 19 -13 32.5t-42 25.5l-114 48q-52 22 -74.5 52t-22.5 78q0 68 44.5 102.5t137.5 34.5q95 0 143 -36t48 -105q0 -11 -12 -11h-90q-12 0 -12 16q0 22 -19 34.5
t-53 12.5q-35 0 -52 -12t-17 -36q0 -18 10.5 -28t41.5 -23l114 -48q53 -22 76.5 -52.5t23.5 -79.5q0 -73 -51 -110.5t-148 -37.5zM229 -197q-14 0 -26 1t-24 3q-9 2 -9 10v46q0 10 9 9q6 -1 14.5 -1.5t14.5 -0.5q21 0 30 6t9 16v10q0 14 -8 19t-24 5h-23q-7 0 -7 7
q0 5 0.5 11t1.5 10l25 78q2 7 10 7h63q10 0 6 -12l-21 -63h9q27 0 42 -17t15 -46v-16q0 -40 -26 -61t-81 -21z" />
    <glyph glyph-name="uni0219" unicode="&#x219;" horiz-adv-x="471" 
d="M235 -12q-99 0 -145.5 39t-43.5 121q0 11 12 11h90q10 0 10 -11q0 -36 19 -53t58 -17q41 0 61 13t20 40q0 19 -13 32.5t-42 25.5l-114 48q-52 22 -74.5 52t-22.5 78q0 68 44.5 102.5t137.5 34.5q95 0 143 -36t48 -105q0 -11 -12 -11h-90q-12 0 -12 16q0 22 -19 34.5
t-53 12.5q-35 0 -52 -12t-17 -36q0 -18 10.5 -28t41.5 -23l114 -48q53 -22 76.5 -52.5t23.5 -79.5q0 -73 -51 -110.5t-148 -37.5zM219 -251q-10 0 -8 11l14 68q-15 6 -22.5 17.5t-7.5 30.5v17q0 25 15 38t40 13q31 0 45.5 -13t14.5 -38v-19q0 -13 -2.5 -25.5t-6.5 -26.5
l-22 -65q-3 -8 -12 -8h-48z" />
    <glyph glyph-name="germandbls" unicode="&#xdf;" horiz-adv-x="562" 
d="M365 -12q-55 0 -89 13.5t-48.5 42.5t-12.5 73q1 11 13 11h77q10 0 10 -12q0 -19 12 -28.5t36 -9.5q29 0 43 13t14 40q0 31 -16.5 52.5t-40.5 39t-48.5 35.5t-41 42t-16.5 58q0 30 12.5 51t28.5 38.5t28.5 38t12.5 49.5q0 32 -18.5 48.5t-55.5 16.5q-43 0 -63 -25.5
t-20 -76.5v-486q0 -12 -12 -12h-95q-11 0 -11 12v482q0 104 50 152.5t154 48.5q58 0 100.5 -17.5t65.5 -50.5t23 -80q0 -39 -12 -64t-27.5 -42t-28 -31.5t-12.5 -32.5q0 -20 16.5 -36.5t40 -35t47 -41.5t40 -54.5t16.5 -75.5q0 -72 -42.5 -109t-129.5 -37z" />
    <glyph glyph-name="t" unicode="t" horiz-adv-x="395" 
d="M258 -12q-58 0 -92.5 18t-50 56t-15.5 97v234h-73q-12 0 -12 12v75q0 12 12 12h77l13 120q2 11 13 11h76q12 0 12 -12v-119h137q12 0 12 -12v-75q0 -12 -12 -12h-137v-228q0 -40 15 -58t50 -18q18 0 36.5 4t34.5 11q14 5 14 -9v-77q0 -10 -9 -13q-20 -8 -45.5 -12.5
t-55.5 -4.5z" />
    <glyph glyph-name="tbar" unicode="&#x167;" horiz-adv-x="395" 
d="M36 243q-12 0 -12 11v62q0 12 12 12h64h118h122q12 0 12 -12v-62q0 -11 -12 -11h-304zM258 -12q-58 0 -92.5 18t-50 56t-15.5 97v234h-73q-12 0 -12 12v75q0 12 12 12h77l13 120q2 11 13 11h76q12 0 12 -12v-119h137q12 0 12 -12v-75q0 -12 -12 -12h-137v-228
q0 -40 15 -58t50 -18q18 0 36.5 4t34.5 11q14 5 14 -9v-77q0 -10 -9 -13q-20 -8 -45.5 -12.5t-55.5 -4.5z" />
    <glyph glyph-name="tcaron" unicode="&#x165;" horiz-adv-x="410" 
d="M258 -12q-58 0 -92.5 18t-50 56t-15.5 97v234h-73q-12 0 -12 12v75q0 12 12 12h77l13 120q2 11 13 11h76q12 0 12 -12v-119h137q12 0 12 -12v-75q0 -12 -12 -12h-137v-228q0 -40 15 -58t50 -18q18 0 36.5 4t34.5 11q14 5 14 -9v-77q0 -10 -9 -13q-20 -8 -45.5 -12.5
t-55.5 -4.5zM290 527q-10 0 -8 10l12 55q-13 5 -20.5 14t-7.5 26v22q0 19 13.5 30.5t38.5 11.5q28 0 41.5 -11t13.5 -31v-23q0 -12 -1.5 -22.5t-6.5 -23.5l-19 -50q-3 -8 -12 -8h-44z" />
    <glyph glyph-name="uni0163" unicode="&#x163;" horiz-adv-x="395" 
d="M258 -12q-58 0 -92.5 18t-50 56t-15.5 97v234h-73q-12 0 -12 12v75q0 12 12 12h77l13 120q2 11 13 11h76q12 0 12 -12v-119h137q12 0 12 -12v-75q0 -12 -12 -12h-137v-228q0 -40 15 -58t50 -18q18 0 36.5 4t34.5 11q14 5 14 -9v-77q0 -10 -9 -13q-20 -8 -45.5 -12.5
t-55.5 -4.5zM223 -197q-14 0 -26 1t-24 3q-9 2 -9 10v46q0 10 9 9q6 -1 14.5 -1.5t14.5 -0.5q21 0 30 6t9 16v10q0 14 -8 19t-24 5h-23q-7 0 -7 7q0 5 0.5 11t1.5 10l25 78q2 7 10 7h63q10 0 6 -12l-21 -63h9q27 0 42 -17t15 -46v-16q0 -40 -26 -61t-81 -21z" />
    <glyph glyph-name="uni021B" unicode="&#x21b;" horiz-adv-x="395" 
d="M258 -12q-58 0 -92.5 18t-50 56t-15.5 97v234h-73q-12 0 -12 12v75q0 12 12 12h77l13 120q2 11 13 11h76q12 0 12 -12v-119h137q12 0 12 -12v-75q0 -12 -12 -12h-137v-228q0 -40 15 -58t50 -18q18 0 36.5 4t34.5 11q14 5 14 -9v-77q0 -10 -9 -13q-20 -8 -45.5 -12.5
t-55.5 -4.5zM214 -251q-10 0 -8 11l14 68q-15 6 -22.5 17.5t-7.5 30.5v17q0 25 15 38t40 13q31 0 45.5 -13t14.5 -38v-19q0 -13 -2.5 -25.5t-6.5 -26.5l-22 -65q-3 -8 -12 -8h-48z" />
    <glyph glyph-name="u" unicode="u" horiz-adv-x="546" 
d="M198 -12q-66 0 -100 41.5t-34 123.5v327q0 12 11 12h95q12 0 12 -12v-308q0 -42 14.5 -62t45.5 -20q33 0 66.5 21.5t75.5 64.5l4 -88q-29 -29 -58.5 -51.5t-62 -35.5t-69.5 -13zM396 0q-12 0 -14 11q-3 18 -5.5 38t-3.5 40l-9 51v340q0 12 12 12h95q11 0 11 -12v-355
q0 -29 1.5 -57.5t5.5 -55.5q2 -12 -12 -12h-81z" />
    <glyph glyph-name="uacute" unicode="&#xfa;" horiz-adv-x="546" 
d="M198 -12q-66 0 -100 41.5t-34 123.5v327q0 12 11 12h95q12 0 12 -12v-308q0 -42 14.5 -62t45.5 -20q33 0 66.5 21.5t75.5 64.5l4 -88q-29 -29 -58.5 -51.5t-62 -35.5t-69.5 -13zM396 0q-12 0 -14 11q-3 18 -5.5 38t-3.5 40l-9 51v340q0 12 12 12h95q11 0 11 -12v-355
q0 -29 1.5 -57.5t5.5 -55.5q2 -12 -12 -12h-81zM208 557q-13 0 -7 12l68 125q5 9 15 9h90q6 0 7.5 -4.5t-2.5 -8.5l-90 -126q-4 -7 -13 -7h-68z" />
    <glyph glyph-name="ucircumflex" unicode="&#xfb;" horiz-adv-x="546" 
d="M198 -12q-66 0 -100 41.5t-34 123.5v327q0 12 11 12h95q12 0 12 -12v-308q0 -42 14.5 -62t45.5 -20q33 0 66.5 21.5t75.5 64.5l4 -88q-29 -29 -58.5 -51.5t-62 -35.5t-69.5 -13zM396 0q-12 0 -14 11q-3 18 -5.5 38t-3.5 40l-9 51v340q0 12 12 12h95q11 0 11 -12v-355
q0 -29 1.5 -57.5t5.5 -55.5q2 -12 -12 -12h-81zM152 550q-13 -7 -13 5v64q0 9 7 13l119 70q9 5 17 0l119 -70q7 -4 7 -13v-64q0 -12 -13 -5l-121 60z" />
    <glyph glyph-name="udieresis" unicode="&#xfc;" horiz-adv-x="546" 
d="M198 -12q-66 0 -100 41.5t-34 123.5v327q0 12 11 12h95q12 0 12 -12v-308q0 -42 14.5 -62t45.5 -20q33 0 66.5 21.5t75.5 64.5l4 -88q-29 -29 -58.5 -51.5t-62 -35.5t-69.5 -13zM396 0q-12 0 -14 11q-3 18 -5.5 38t-3.5 40l-9 51v340q0 12 12 12h95q11 0 11 -12v-355
q0 -29 1.5 -57.5t5.5 -55.5q2 -12 -12 -12h-81zM179 564q-32 0 -47.5 16.5t-15.5 42.5v14q0 28 15.5 44t47.5 16q33 0 48.5 -16t15.5 -44v-14q0 -26 -15.5 -42.5t-48.5 -16.5zM367 564q-32 0 -48 16.5t-16 42.5v14q0 28 16 44t48 16t47.5 -16t15.5 -44v-14
q0 -26 -15.5 -42.5t-47.5 -16.5z" />
    <glyph glyph-name="ugrave" unicode="&#xf9;" horiz-adv-x="546" 
d="M198 -12q-66 0 -100 41.5t-34 123.5v327q0 12 11 12h95q12 0 12 -12v-308q0 -42 14.5 -62t45.5 -20q33 0 66.5 21.5t75.5 64.5l4 -88q-29 -29 -58.5 -51.5t-62 -35.5t-69.5 -13zM396 0q-12 0 -14 11q-3 18 -5.5 38t-3.5 40l-9 51v340q0 12 12 12h95q11 0 11 -12v-355
q0 -29 1.5 -57.5t5.5 -55.5q2 -12 -12 -12h-81zM268 557q-8 0 -13 7l-90 126q-3 4 -1.5 8.5t7.5 4.5h90q10 0 14 -9l68 -125q6 -12 -6 -12h-69z" />
    <glyph glyph-name="uhungarumlaut" unicode="&#x171;" horiz-adv-x="546" 
d="M198 -12q-66 0 -100 41.5t-34 123.5v327q0 12 11 12h95q12 0 12 -12v-308q0 -42 14.5 -62t45.5 -20q33 0 66.5 21.5t75.5 64.5l4 -88q-29 -29 -58.5 -51.5t-62 -35.5t-69.5 -13zM396 0q-12 0 -14 11q-3 18 -5.5 38t-3.5 40l-9 51v340q0 12 12 12h95q11 0 11 -12v-355
q0 -29 1.5 -57.5t5.5 -55.5q2 -12 -12 -12h-81zM149 557q-13 0 -8 12l55 130q4 10 14 10h85q14 0 7 -14l-71 -130q-5 -8 -14 -8h-68zM305 557q-13 0 -7 12l54 130q4 10 14 10h86q14 0 6 -14l-71 -130q-5 -8 -13 -8h-69z" />
    <glyph glyph-name="umacron" unicode="&#x16b;" horiz-adv-x="546" 
d="M198 -12q-66 0 -100 41.5t-34 123.5v327q0 12 11 12h95q12 0 12 -12v-308q0 -42 14.5 -62t45.5 -20q33 0 66.5 21.5t75.5 64.5l4 -88q-29 -29 -58.5 -51.5t-62 -35.5t-69.5 -13zM396 0q-12 0 -14 11q-3 18 -5.5 38t-3.5 40l-9 51v340q0 12 12 12h95q11 0 11 -12v-355
q0 -29 1.5 -57.5t5.5 -55.5q2 -12 -12 -12h-81zM168 570q-12 0 -12 12v66q0 11 12 11h209q12 0 12 -11v-66q0 -12 -12 -12h-209z" />
    <glyph glyph-name="uogonek" unicode="&#x173;" horiz-adv-x="546" 
d="M198 -12q-66 0 -100 41.5t-34 123.5v327q0 12 11 12h95q12 0 12 -12v-308q0 -42 14.5 -62t45.5 -20q33 0 66.5 21.5t75.5 64.5l4 -88q-29 -29 -58.5 -51.5t-62 -35.5t-69.5 -13zM396 0q-12 0 -14 11q-3 18 -5.5 38t-3.5 40l-9 51v340q0 12 12 12h95q11 0 11 -12v-355
q0 -29 1.5 -57.5t5.5 -55.5q2 -12 -12 -12h-81zM435 -197q-51 0 -78 23t-27 60v11q0 45 35 78.5t98 50.5l17 -13v-11q-28 -12 -43 -32t-15 -43v-8q0 -30 37 -30q8 0 14.5 0.5t13.5 1.5q10 2 10 -8v-64q0 -5 -2 -7t-8 -4q-12 -2 -26 -3.5t-26 -1.5z" />
    <glyph glyph-name="uring" unicode="&#x16f;" horiz-adv-x="546" 
d="M198 -12q-66 0 -100 41.5t-34 123.5v327q0 12 11 12h95q12 0 12 -12v-308q0 -42 14.5 -62t45.5 -20q33 0 66.5 21.5t75.5 64.5l4 -88q-29 -29 -58.5 -51.5t-62 -35.5t-69.5 -13zM396 0q-12 0 -14 11q-3 18 -5.5 38t-3.5 40l-9 51v340q0 12 12 12h95q11 0 11 -12v-355
q0 -29 1.5 -57.5t5.5 -55.5q2 -12 -12 -12h-81zM273 553q-56 0 -88.5 27.5t-32.5 78.5q0 52 32.5 79t88.5 27t88.5 -27t32.5 -79q0 -51 -32 -78.5t-89 -27.5zM273 617q23 0 33 12t10 31q0 20 -10 31.5t-33 11.5t-33 -11.5t-10 -31.5q0 -19 10 -31t33 -12z" />
    <glyph glyph-name="v" unicode="v" horiz-adv-x="513" 
d="M194 0q-10 0 -13 9l-160 470q-4 13 9 13h102q11 0 14 -10l73 -248q10 -33 19 -67t17 -68h2q9 35 18.5 68t19.5 67l73 248q3 10 14 10h101q13 0 10 -13l-161 -470q-4 -9 -14 -9h-124z" />
    <glyph glyph-name="w" unicode="w" horiz-adv-x="741" 
d="M184 0q-10 0 -13 10l-147 469q-4 13 9 13h101q9 0 12 -11l65 -243q8 -33 15.5 -65t14.5 -65h3q9 31 18.5 62.5t18.5 62.5l42 137l-26 98q-3 13 9 13h89q11 0 13 -9l60 -237q7 -32 14.5 -63.5t14.5 -63.5h3q6 33 14 65.5t16 65.5l65 242q3 11 12 11h101q13 0 9 -13
l-147 -469q-4 -10 -13 -10h-110q-11 0 -14 10l-25 85q-10 33 -18 68.5t-16 80.5h-3q-8 -45 -17.5 -79.5t-19.5 -67.5l-27 -87q-3 -10 -13 -10h-110z" />
    <glyph glyph-name="wacute" unicode="&#x1e83;" horiz-adv-x="741" 
d="M184 0q-10 0 -13 10l-147 469q-4 13 9 13h101q9 0 12 -11l65 -243q8 -33 15.5 -65t14.5 -65h3q9 31 18.5 62.5t18.5 62.5l42 137l-26 98q-3 13 9 13h89q11 0 13 -9l60 -237q7 -32 14.5 -63.5t14.5 -63.5h3q6 33 14 65.5t16 65.5l65 242q3 11 12 11h101q13 0 9 -13
l-147 -469q-4 -10 -13 -10h-110q-11 0 -14 10l-25 85q-10 33 -18 68.5t-16 80.5h-3q-8 -45 -17.5 -79.5t-19.5 -67.5l-27 -87q-3 -10 -13 -10h-110zM306 557q-13 0 -7 12l68 125q5 9 15 9h90q6 0 7.5 -4.5t-2.5 -8.5l-90 -126q-4 -7 -13 -7h-68z" />
    <glyph glyph-name="wcircumflex" unicode="&#x175;" horiz-adv-x="741" 
d="M184 0q-10 0 -13 10l-147 469q-4 13 9 13h101q9 0 12 -11l65 -243q8 -33 15.5 -65t14.5 -65h3q9 31 18.5 62.5t18.5 62.5l42 137l-26 98q-3 13 9 13h89q11 0 13 -9l60 -237q7 -32 14.5 -63.5t14.5 -63.5h3q6 33 14 65.5t16 65.5l65 242q3 11 12 11h101q13 0 9 -13
l-147 -469q-4 -10 -13 -10h-110q-11 0 -14 10l-25 85q-10 33 -18 68.5t-16 80.5h-3q-8 -45 -17.5 -79.5t-19.5 -67.5l-27 -87q-3 -10 -13 -10h-110zM249 550q-13 -7 -13 5v64q0 9 7 13l119 70q9 5 17 0l119 -70q7 -4 7 -13v-64q0 -12 -13 -5l-121 60z" />
    <glyph glyph-name="wdieresis" unicode="&#x1e85;" horiz-adv-x="741" 
d="M184 0q-10 0 -13 10l-147 469q-4 13 9 13h101q9 0 12 -11l65 -243q8 -33 15.5 -65t14.5 -65h3q9 31 18.5 62.5t18.5 62.5l42 137l-26 98q-3 13 9 13h89q11 0 13 -9l60 -237q7 -32 14.5 -63.5t14.5 -63.5h3q6 33 14 65.5t16 65.5l65 242q3 11 12 11h101q13 0 9 -13
l-147 -469q-4 -10 -13 -10h-110q-11 0 -14 10l-25 85q-10 33 -18 68.5t-16 80.5h-3q-8 -45 -17.5 -79.5t-19.5 -67.5l-27 -87q-3 -10 -13 -10h-110zM276 564q-32 0 -47.5 16.5t-15.5 42.5v14q0 28 15.5 44t47.5 16q33 0 48.5 -16t15.5 -44v-14q0 -26 -15.5 -42.5
t-48.5 -16.5zM464 564q-32 0 -48 16.5t-16 42.5v14q0 28 16 44t48 16t47.5 -16t15.5 -44v-14q0 -26 -15.5 -42.5t-47.5 -16.5z" />
    <glyph glyph-name="wgrave" unicode="&#x1e81;" horiz-adv-x="741" 
d="M184 0q-10 0 -13 10l-147 469q-4 13 9 13h101q9 0 12 -11l65 -243q8 -33 15.5 -65t14.5 -65h3q9 31 18.5 62.5t18.5 62.5l42 137l-26 98q-3 13 9 13h89q11 0 13 -9l60 -237q7 -32 14.5 -63.5t14.5 -63.5h3q6 33 14 65.5t16 65.5l65 242q3 11 12 11h101q13 0 9 -13
l-147 -469q-4 -10 -13 -10h-110q-11 0 -14 10l-25 85q-10 33 -18 68.5t-16 80.5h-3q-8 -45 -17.5 -79.5t-19.5 -67.5l-27 -87q-3 -10 -13 -10h-110zM365 557q-8 0 -13 7l-90 126q-3 4 -1.5 8.5t7.5 4.5h90q10 0 14 -9l68 -125q6 -12 -6 -12h-69z" />
    <glyph glyph-name="x" unicode="x" horiz-adv-x="504" 
d="M18 0q-7 0 -9 4.5t2 9.5l168 239l-157 225q-4 6 -1.5 10t9.5 4h110q10 0 14 -7l55 -85q11 -17 22 -36t21 -36h1q11 19 23 38t23 38l53 80q4 8 14 8h106q7 0 9.5 -4t-1.5 -10l-157 -223l170 -241q4 -5 2 -9.5t-9 -4.5h-111q-9 0 -14 7l-53 80q-14 22 -28 45t-29 46h-1
q-13 -22 -27 -45.5t-28 -45.5l-53 -80q-4 -7 -14 -7h-110z" />
    <glyph glyph-name="y" unicode="y" horiz-adv-x="512" 
d="M143 -185q-14 0 -8 14l67 175l-183 474q-5 14 9 14h103q10 0 13 -10l72 -205q11 -31 21 -65.5t19 -69.5h2q10 35 20 69t21 66l72 205q3 10 13 10h100q15 0 10 -14l-245 -654q-4 -9 -13 -9h-93z" />
    <glyph glyph-name="yacute" unicode="&#xfd;" horiz-adv-x="512" 
d="M143 -185q-14 0 -8 14l67 175l-183 474q-5 14 9 14h103q10 0 13 -10l72 -205q11 -31 21 -65.5t19 -69.5h2q10 35 20 69t21 66l72 205q3 10 13 10h100q15 0 10 -14l-245 -654q-4 -9 -13 -9h-93zM191 557q-13 0 -7 12l68 125q5 9 15 9h90q6 0 7.5 -4.5t-2.5 -8.5l-90 -126
q-4 -7 -13 -7h-68z" />
    <glyph glyph-name="ycircumflex" unicode="&#x177;" horiz-adv-x="512" 
d="M143 -185q-14 0 -8 14l67 175l-183 474q-5 14 9 14h103q10 0 13 -10l72 -205q11 -31 21 -65.5t19 -69.5h2q10 35 20 69t21 66l72 205q3 10 13 10h100q15 0 10 -14l-245 -654q-4 -9 -13 -9h-93zM134 550q-13 -7 -13 5v64q0 9 7 13l119 70q9 5 17 0l119 -70q7 -4 7 -13v-64
q0 -12 -13 -5l-121 60z" />
    <glyph glyph-name="ydieresis" unicode="&#xff;" horiz-adv-x="512" 
d="M143 -185q-14 0 -8 14l67 175l-183 474q-5 14 9 14h103q10 0 13 -10l72 -205q11 -31 21 -65.5t19 -69.5h2q10 35 20 69t21 66l72 205q3 10 13 10h100q15 0 10 -14l-245 -654q-4 -9 -13 -9h-93zM161 564q-32 0 -47.5 16.5t-15.5 42.5v14q0 28 15.5 44t47.5 16
q33 0 48.5 -16t15.5 -44v-14q0 -26 -15.5 -42.5t-48.5 -16.5zM349 564q-32 0 -48 16.5t-16 42.5v14q0 28 16 44t48 16t47.5 -16t15.5 -44v-14q0 -26 -15.5 -42.5t-47.5 -16.5z" />
    <glyph glyph-name="ygrave" unicode="&#x1ef3;" horiz-adv-x="512" 
d="M143 -185q-14 0 -8 14l67 175l-183 474q-5 14 9 14h103q10 0 13 -10l72 -205q11 -31 21 -65.5t19 -69.5h2q10 35 20 69t21 66l72 205q3 10 13 10h100q15 0 10 -14l-245 -654q-4 -9 -13 -9h-93zM250 557q-8 0 -13 7l-90 126q-3 4 -1.5 8.5t7.5 4.5h90q10 0 14 -9l68 -125
q6 -12 -6 -12h-69z" />
    <glyph glyph-name="z" unicode="z" horiz-adv-x="473" 
d="M30 0q-11 0 -11 11v3q0 9 4 15l191 277q15 21 30 43.5t30 42.5v2q-26 -1 -52 -1h-54h-113q-12 0 -12 12v75q0 12 12 12h386q12 0 12 -11v-3q0 -4 -1.5 -8.5t-6.5 -11.5l-182 -264q-16 -23 -32.5 -46.5t-34.5 -47.5v-1h51.5h49.5h129q12 0 12 -12v-75q0 -12 -12 -12h-396z
" />
    <glyph glyph-name="zacute" unicode="&#x17a;" horiz-adv-x="473" 
d="M30 0q-11 0 -11 11v3q0 9 4 15l191 277q15 21 30 43.5t30 42.5v2q-26 -1 -52 -1h-54h-113q-12 0 -12 12v75q0 12 12 12h386q12 0 12 -11v-3q0 -4 -1.5 -8.5t-6.5 -11.5l-182 -264q-16 -23 -32.5 -46.5t-34.5 -47.5v-1h51.5h49.5h129q12 0 12 -12v-75q0 -12 -12 -12h-396z
M182 557q-13 0 -7 12l68 125q5 9 15 9h90q6 0 7.5 -4.5t-2.5 -8.5l-90 -126q-4 -7 -13 -7h-68z" />
    <glyph glyph-name="zcaron" unicode="&#x17e;" horiz-adv-x="473" 
d="M30 0q-11 0 -11 11v3q0 9 4 15l191 277q15 21 30 43.5t30 42.5v2q-26 -1 -52 -1h-54h-113q-12 0 -12 12v75q0 12 12 12h386q12 0 12 -11v-3q0 -4 -1.5 -8.5t-6.5 -11.5l-182 -264q-16 -23 -32.5 -46.5t-34.5 -47.5v-1h51.5h49.5h129q12 0 12 -12v-75q0 -12 -12 -12h-396z
M238 550l-119 69q-7 4 -7 14v63q0 13 13 6l122 -61l121 61q13 7 13 -6v-63q0 -10 -7 -14l-119 -69q-8 -5 -17 0z" />
    <glyph glyph-name="zdotaccent" unicode="&#x17c;" horiz-adv-x="473" 
d="M30 0q-11 0 -11 11v3q0 9 4 15l191 277q15 21 30 43.5t30 42.5v2q-26 -1 -52 -1h-54h-113q-12 0 -12 12v75q0 12 12 12h386q12 0 12 -11v-3q0 -4 -1.5 -8.5t-6.5 -11.5l-182 -264q-16 -23 -32.5 -46.5t-34.5 -47.5v-1h51.5h49.5h129q12 0 12 -12v-75q0 -12 -12 -12h-396z
M247 563q-34 0 -51.5 18t-17.5 46v15q0 29 17.5 46.5t51.5 17.5t51 -17.5t17 -46.5v-15q0 -28 -17 -46t-51 -18z" />
    <glyph glyph-name="germandbls.calt" horiz-adv-x="665" 
d="M416 -12q-67 0 -107 19t-57 53.5t-13 82.5q1 11 4.5 14t9.5 3l89 -1q11 0 11 -18q0 -23 16 -36t49 -13q46 0 68.5 25.5t22.5 79.5q0 59 -29.5 85t-96.5 26h-60q-12 0 -12 12v41q0 8 4 15l99 172h-220v-536q0 -12 -12 -12h-97q-11 0 -11 12v631q0 12 11 12h488
q9 0 11.5 -7.5t-2.5 -16.5l-133 -232q90 -10 135 -60t45 -142q0 -106 -55.5 -157.5t-157.5 -51.5z" />
    <glyph glyph-name="g.ss02" horiz-adv-x="520" 
d="M254 -197q-121 0 -175 31t-54 93q0 38 18.5 68t59.5 50l90 -29q-25 -9 -36.5 -26t-11.5 -39q0 -31 25 -43.5t90 -13.5q70 0 95 13t25 46q0 23 -11.5 34t-36.5 12l-183 11q-37 3 -62.5 26t-25.5 68q0 33 15 57t52 49l72 -33q-20 -7 -28.5 -18.5t-8.5 -24.5q0 -15 9.5 -21
t30.5 -7l161 -10q69 -5 100.5 -40.5t31.5 -102.5q0 -79 -57.5 -114.5t-184.5 -35.5zM264 159q-100 0 -147.5 42.5t-47.5 129.5q0 88 48 130.5t149 42.5q98 0 145 -43t47 -131q0 -87 -47 -129t-147 -42zM264 251q45 0 62.5 18.5t17.5 61.5q0 44 -17.5 63t-62.5 19t-63 -19
t-18 -63q0 -43 18 -61.5t63 -18.5z" />
    <glyph glyph-name="f_j" horiz-adv-x="581" 
d="M391 -191q-8 -5 -14 3l-57 67q-3 5 -2.5 9t5.5 8q25 17 41.5 42.5t25.5 59.5t9 78v317h-179v-381q0 -5 -3 -8.5t-9 -3.5h-94q-5 0 -8.5 3.5t-3.5 8.5v381h-74q-4 0 -7.5 3.5t-3.5 8.5v75q0 6 3.5 9t7.5 3h74v38q0 84 45.5 124.5t139.5 40.5q31 0 64 -3.5t53 -8.5
q10 -1 10 -12v-72q0 -14 -14 -10q-23 5 -48 8.5t-49 3.5q-42 0 -62.5 -16.5t-20.5 -49.5v-43h286q11 0 11 -12v-406q0 -65 -13 -113t-40.5 -85t-72.5 -67z" />
    <glyph glyph-name="fi" unicode="&#xfb01;" horiz-adv-x="581" 
d="M114 0q-5 0 -8.5 3.5t-3.5 8.5v381h-74q-4 0 -7.5 3.5t-3.5 8.5v75q0 6 3.5 9t7.5 3h74v38q0 84 45.5 124.5t139.5 40.5q31 0 64 -3.5t53 -8.5q10 -1 10 -12v-72q0 -13 -14 -10q-24 5 -48.5 8.5t-48.5 3.5q-42 0 -62.5 -16t-20.5 -50v-43h286q11 0 11 -12v-468
q0 -12 -11 -12h-95q-12 0 -12 12v381h-179v-381q0 -5 -3 -8.5t-9 -3.5h-94z" />
    <glyph glyph-name="fl" unicode="&#xfb02;" horiz-adv-x="581" 
d="M114 0q-5 0 -8.5 3.5t-3.5 8.5v381h-74q-4 0 -7.5 3.5t-3.5 8.5v75q0 6 3.5 9t7.5 3h74v38q0 87 47 126t138 39q39 0 73.5 -5.5t55.5 -9.5l89 3q12 0 12 -12v-659q0 -12 -12 -12h-94q-12 0 -12 12v579q-22 3 -47.5 6.5t-48.5 3.5q-41 0 -62 -16t-21 -50v-43h84q5 0 8 -3
t3 -9v-75q0 -5 -3 -8.5t-8 -3.5h-84v-381q0 -5 -3 -8.5t-9 -3.5h-94z" />
    <glyph glyph-name="a.sc" horiz-adv-x="529" 
d="M9 0q-12 0 -8 11l187 522q4 8 13 8h125q9 0 13 -8l189 -521q4 -12 -8 -12h-104q-8 0 -12 8l-106 315q-10 32 -19 61.5t-16 59.5h-2q-7 -30 -15.5 -59t-18.5 -61l-103 -315q-3 -9 -12 -9h-103zM138 106l21 94h206l22 -94h-249z" />
    <glyph glyph-name="aacute.sc" horiz-adv-x="529" 
d="M9 0q-12 0 -8 11l187 522q4 8 13 8h125q9 0 13 -8l189 -521q4 -12 -8 -12h-104q-8 0 -12 8l-106 315q-10 32 -19 61.5t-16 59.5h-2q-7 -30 -15.5 -59t-18.5 -61l-103 -315q-3 -9 -12 -9h-103zM138 106l21 94h206l22 -94h-249zM204 594q-15 0 -8 14l58 106q5 8 14 8h82
q7 0 8.5 -4t-2.5 -10l-79 -107q-5 -7 -14 -7h-59z" />
    <glyph glyph-name="abreve.sc" horiz-adv-x="529" 
d="M9 0q-12 0 -8 11l187 522q4 8 13 8h125q9 0 13 -8l189 -521q4 -12 -8 -12h-104q-8 0 -12 8l-106 315q-10 32 -19 61.5t-16 59.5h-2q-7 -30 -15.5 -59t-18.5 -61l-103 -315q-3 -9 -12 -9h-103zM138 106l21 94h206l22 -94h-249zM264 601q-41 0 -73.5 13.5t-43.5 22.5
q-7 6 -7 16v64q0 7 4 9.5t9 -1.5q17 -13 47 -26t64 -13t64 13t47 26q6 4 9.5 1.5t3.5 -9.5v-64q0 -10 -7 -16q-12 -9 -43.5 -22.5t-73.5 -13.5z" />
    <glyph glyph-name="acircumflex.sc" horiz-adv-x="529" 
d="M9 0q-12 0 -8 11l187 522q4 8 13 8h125q9 0 13 -8l189 -521q4 -12 -8 -12h-104q-8 0 -12 8l-106 315q-10 32 -19 61.5t-16 59.5h-2q-7 -30 -15.5 -59t-18.5 -61l-103 -315q-3 -9 -12 -9h-103zM138 106l21 94h206l22 -94h-249zM151 596q-13 -5 -13 7v61q0 9 8 13l109 51
q8 4 16 0l109 -51q8 -4 8 -13v-61q0 -12 -13 -7l-112 43z" />
    <glyph glyph-name="adieresis.sc" horiz-adv-x="529" 
d="M9 0q-12 0 -8 11l187 522q4 8 13 8h125q9 0 13 -8l189 -521q4 -12 -8 -12h-104q-8 0 -12 8l-106 315q-10 32 -19 61.5t-16 59.5h-2q-7 -30 -15.5 -59t-18.5 -61l-103 -315q-3 -9 -12 -9h-103zM138 106l21 94h206l22 -94h-249zM170 606q-32 0 -47.5 16.5t-15.5 43.5v14
q0 28 15.5 43.5t47.5 15.5q33 0 48.5 -15.5t15.5 -43.5v-14q0 -27 -15.5 -43.5t-48.5 -16.5zM357 606q-32 0 -47.5 16.5t-15.5 43.5v14q0 28 15.5 43.5t47.5 15.5t47.5 -15.5t15.5 -43.5v-14q0 -27 -15.5 -43.5t-47.5 -16.5z" />
    <glyph glyph-name="agrave.sc" horiz-adv-x="529" 
d="M9 0q-12 0 -8 11l187 522q4 8 13 8h125q9 0 13 -8l189 -521q4 -12 -8 -12h-104q-8 0 -12 8l-106 315q-10 32 -19 61.5t-16 59.5h-2q-7 -30 -15.5 -59t-18.5 -61l-103 -315q-3 -9 -12 -9h-103zM138 106l21 94h206l22 -94h-249zM261 594q-10 0 -14 7l-79 107q-4 6 -2.5 10
t8.5 4h81q10 0 14 -8l58 -106q8 -14 -7 -14h-59z" />
    <glyph glyph-name="amacron.sc" horiz-adv-x="529" 
d="M9 0q-12 0 -8 11l187 522q4 8 13 8h125q9 0 13 -8l189 -521q4 -12 -8 -12h-104q-8 0 -12 8l-106 315q-10 32 -19 61.5t-16 59.5h-2q-7 -30 -15.5 -59t-18.5 -61l-103 -315q-3 -9 -12 -9h-103zM138 106l21 94h206l22 -94h-249zM166 599q-12 0 -12 12v63q0 11 12 11h195
q12 0 12 -11v-63q0 -12 -12 -12h-195z" />
    <glyph glyph-name="aogonek.sc" horiz-adv-x="529" 
d="M9 0q-12 0 -8 11l187 522q4 8 13 8h125q9 0 13 -8l189 -521q4 -12 -8 -12h-104q-8 0 -12 8l-106 315q-10 32 -19 61.5t-16 59.5h-2q-7 -30 -15.5 -59t-18.5 -61l-103 -315q-3 -9 -12 -9h-103zM138 106l21 94h206l22 -94h-249zM465 -198q-51 0 -78 23t-27 60v11
q0 45 35 78.5t98 50.5l17 -13v-11q-28 -12 -43 -32t-15 -43v-8q0 -30 37 -30q8 0 14.5 0.5t13.5 1.5q10 2 10 -8v-64q0 -5 -2 -7t-8 -4q-12 -2 -26 -3.5t-26 -1.5z" />
    <glyph glyph-name="aring.sc" horiz-adv-x="529" 
d="M9 0q-12 0 -8 11l179 497q-13 12 -20.5 29t-7.5 39q0 50 31 73.5t82 23.5t82 -23.5t31 -73.5q0 -22 -8 -40t-22 -29l180 -495q4 -12 -8 -12h-104q-8 0 -12 8l-33 98h-215l-32 -97q-3 -9 -12 -9h-103zM185 200h156l-43 123q-10 32 -19 62t-16 61h-2q-7 -31 -15.5 -60.5
t-18.5 -61.5zM265 539q20 0 29 10t9 28t-9 27.5t-29 9.5q-19 0 -28 -9.5t-9 -27.5t9 -28t28 -10z" />
    <glyph glyph-name="atilde.sc" horiz-adv-x="529" 
d="M9 0q-12 0 -8 11l187 522q4 8 13 8h125q9 0 13 -8l189 -521q4 -12 -8 -12h-104q-8 0 -12 8l-106 315q-10 32 -19 61.5t-16 59.5h-2q-7 -30 -15.5 -59t-18.5 -61l-103 -315q-3 -9 -12 -9h-103zM138 106l21 94h206l22 -94h-249zM315 596q-20 0 -37.5 6t-33.5 11t-33 5
t-32 -5.5t-26 -10.5q-13 -6 -13 7v58q0 10 6 14q10 6 27.5 13.5t41.5 7.5q23 0 40 -5t31 -10.5t30 -5.5t31.5 5.5t26.5 10.5q14 6 14 -7v-58q0 -10 -7 -14q-9 -5 -25 -13.5t-41 -8.5z" />
    <glyph glyph-name="ae.sc" horiz-adv-x="757" 
d="M9 0q-13 0 -8 12l258 521q4 8 13 8h422q10 0 10 -11v-76q0 -11 -10 -11h-240v-122h219q10 0 10 -11v-72q0 -10 -10 -10h-219v-130h240q10 0 10 -10v-77q0 -11 -10 -11h-345q-11 0 -11 11v104h-175l42 94h133v167q0 21 0.5 41.5t0.5 39.5h-2q-8 -20 -16.5 -40t-17.5 -40
l-177 -369q-4 -8 -13 -8h-104z" />
    <glyph glyph-name="b.sc" horiz-adv-x="531" 
d="M78 0q-11 0 -11 11v519q0 11 11 11h183q106 0 157.5 -33.5t51.5 -98.5q0 -48 -21.5 -77t-70.5 -44v-2q58 -10 87 -43t29 -87q0 -82 -55.5 -119t-177.5 -37h-183zM183 94h83q61 0 86 17t25 55q0 37 -26.5 54t-85.5 17h-82v-143zM183 319h76q51 0 73 16t22 51
q0 31 -22.5 46t-77.5 15h-71v-128z" />
    <glyph glyph-name="c.sc" horiz-adv-x="580" 
d="M289 -12q-110 0 -172 52.5t-62 160.5v142q0 106 62 158t173 52q78 0 134.5 -24.5t84 -69t16.5 -104.5q-1 -4 -3.5 -7.5t-8.5 -3.5h-96q-11 0 -10 11q2 44 -27 70.5t-89 26.5q-57 0 -88 -27.5t-31 -85.5v-134q0 -58 31 -87t89 -29q65 0 92 27.5t23 71.5q0 11 10 11l96 1
q10 0 12 -12q8 -89 -52.5 -144.5t-183.5 -55.5z" />
    <glyph glyph-name="cacute.sc" horiz-adv-x="580" 
d="M289 -12q-110 0 -172 52.5t-62 160.5v142q0 106 62 158t173 52q78 0 134.5 -24.5t84 -69t16.5 -104.5q-1 -4 -3.5 -7.5t-8.5 -3.5h-96q-11 0 -10 11q2 44 -27 70.5t-89 26.5q-57 0 -88 -27.5t-31 -85.5v-134q0 -58 31 -87t89 -29q65 0 92 27.5t23 71.5q0 11 10 11l96 1
q10 0 12 -12q8 -89 -52.5 -144.5t-183.5 -55.5zM230 594q-15 0 -8 14l58 106q5 8 14 8h82q7 0 8.5 -4t-2.5 -10l-79 -107q-5 -7 -14 -7h-59z" />
    <glyph glyph-name="ccaron.sc" horiz-adv-x="580" 
d="M289 -12q-110 0 -172 52.5t-62 160.5v142q0 106 62 158t173 52q78 0 134.5 -24.5t84 -69t16.5 -104.5q-1 -4 -3.5 -7.5t-8.5 -3.5h-96q-11 0 -10 11q2 44 -27 70.5t-89 26.5q-57 0 -88 -27.5t-31 -85.5v-134q0 -58 31 -87t89 -29q65 0 92 27.5t23 71.5q0 11 10 11l96 1
q10 0 12 -12q8 -89 -52.5 -144.5t-183.5 -55.5zM281 597l-109 51q-8 4 -8 13v61q0 12 13 7l112 -43l112 43q13 5 13 -7v-61q0 -9 -8 -13l-109 -51q-8 -3 -16 0z" />
    <glyph glyph-name="ccedilla.sc" horiz-adv-x="580" 
d="M289 -12q-110 0 -172 52.5t-62 160.5v142q0 106 62 158t173 52q78 0 134.5 -24.5t84 -69t16.5 -104.5q-1 -4 -3.5 -7.5t-8.5 -3.5h-96q-11 0 -10 11q2 44 -27 70.5t-89 26.5q-57 0 -88 -27.5t-31 -85.5v-134q0 -58 31 -87t89 -29q65 0 92 27.5t23 71.5q0 11 10 11l96 1
q10 0 12 -12q8 -89 -52.5 -144.5t-183.5 -55.5zM268 -197q-14 0 -26 1t-24 3q-9 2 -9 10v46q0 10 9 9q6 -1 14.5 -1.5t14.5 -0.5q21 0 30 6t9 16v10q0 14 -8 19t-24 5h-23q-7 0 -7 7q0 5 0.5 11t1.5 10l25 78q2 7 10 7h63q10 0 6 -12l-21 -63h9q27 0 42 -17t15 -46v-16
q0 -40 -26 -61t-81 -21z" />
    <glyph glyph-name="cdotaccent.sc" horiz-adv-x="580" 
d="M289 -12q-110 0 -172 52.5t-62 160.5v142q0 106 62 158t173 52q78 0 134.5 -24.5t84 -69t16.5 -104.5q-1 -4 -3.5 -7.5t-8.5 -3.5h-96q-11 0 -10 11q2 44 -27 70.5t-89 26.5q-57 0 -88 -27.5t-31 -85.5v-134q0 -58 31 -87t89 -29q65 0 92 27.5t23 71.5q0 11 10 11l96 1
q10 0 12 -12q8 -89 -52.5 -144.5t-183.5 -55.5zM290 607q-34 0 -51.5 18t-17.5 46v15q0 29 17.5 46.5t51.5 17.5t51 -17.5t17 -46.5v-15q0 -28 -17 -46t-51 -18z" />
    <glyph glyph-name="d.sc" horiz-adv-x="579" 
d="M78 0q-11 0 -11 11v519q0 11 11 11h183q137 0 204 -60t67 -178v-53q0 -124 -66.5 -187t-204.5 -63h-183zM184 101h71q84 0 122.5 37.5t38.5 113.5v49q0 70 -38.5 105t-122.5 35h-71v-340z" />
    <glyph glyph-name="eth.sc" horiz-adv-x="576" 
d="M15 231q-11 0 -11 11v65q0 10 11 10h50h217q11 0 11 -10v-65q0 -11 -11 -11h-267zM75 0q-11 0 -11 11v519q0 11 11 11h183q137 0 204 -60t67 -178v-53q0 -124 -66.5 -187t-204.5 -63h-183zM181 101h71q84 0 122.5 37.5t38.5 113.5v49q0 70 -38.5 105t-122.5 35h-71v-340z
" />
    <glyph glyph-name="dcaron.sc" horiz-adv-x="579" 
d="M78 0q-11 0 -11 11v519q0 11 11 11h183q137 0 204 -60t67 -178v-53q0 -124 -66.5 -187t-204.5 -63h-183zM184 101h71q84 0 122.5 37.5t38.5 113.5v49q0 70 -38.5 105t-122.5 35h-71v-340zM247 597l-109 51q-8 4 -8 13v61q0 12 13 7l112 -43l112 43q13 5 13 -7v-61
q0 -9 -8 -13l-109 -51q-8 -3 -16 0z" />
    <glyph glyph-name="dcroat.sc" horiz-adv-x="576" 
d="M15 231q-11 0 -11 11v65q0 10 11 10h50h217q11 0 11 -10v-65q0 -11 -11 -11h-267zM75 0q-11 0 -11 11v519q0 11 11 11h183q137 0 204 -60t67 -178v-53q0 -124 -66.5 -187t-204.5 -63h-183zM181 101h71q84 0 122.5 37.5t38.5 113.5v49q0 70 -38.5 105t-122.5 35h-71v-340z
" />
    <glyph glyph-name="e.sc" horiz-adv-x="483" 
d="M78 0q-11 0 -11 11v519q0 11 11 11h342q10 0 10 -11v-76q0 -11 -10 -11h-237v-122h216q10 0 10 -11v-72q0 -10 -10 -10h-216v-130h237q10 0 10 -10v-77q0 -11 -10 -11h-342z" />
    <glyph glyph-name="eacute.sc" horiz-adv-x="483" 
d="M78 0q-11 0 -11 11v519q0 11 11 11h342q10 0 10 -11v-76q0 -11 -10 -11h-237v-122h216q10 0 10 -11v-72q0 -10 -10 -10h-216v-130h237q10 0 10 -10v-77q0 -11 -10 -11h-342zM188 594q-15 0 -8 14l58 106q5 8 14 8h82q7 0 8.5 -4t-2.5 -10l-79 -107q-5 -7 -14 -7h-59z" />
    <glyph glyph-name="ecaron.sc" horiz-adv-x="483" 
d="M78 0q-11 0 -11 11v519q0 11 11 11h342q10 0 10 -11v-76q0 -11 -10 -11h-237v-122h216q10 0 10 -11v-72q0 -10 -10 -10h-216v-130h237q10 0 10 -10v-77q0 -11 -10 -11h-342zM240 597l-109 51q-8 4 -8 13v61q0 12 13 7l112 -43l112 43q13 5 13 -7v-61q0 -9 -8 -13
l-109 -51q-8 -3 -16 0z" />
    <glyph glyph-name="ecircumflex.sc" horiz-adv-x="483" 
d="M78 0q-11 0 -11 11v519q0 11 11 11h342q10 0 10 -11v-76q0 -11 -10 -11h-237v-122h216q10 0 10 -11v-72q0 -10 -10 -10h-216v-130h237q10 0 10 -10v-77q0 -11 -10 -11h-342zM136 596q-13 -5 -13 7v61q0 9 8 13l109 51q8 4 16 0l109 -51q8 -4 8 -13v-61q0 -12 -13 -7
l-112 43z" />
    <glyph glyph-name="edieresis.sc" horiz-adv-x="483" 
d="M78 0q-11 0 -11 11v519q0 11 11 11h342q10 0 10 -11v-76q0 -11 -10 -11h-237v-122h216q10 0 10 -11v-72q0 -10 -10 -10h-216v-130h237q10 0 10 -10v-77q0 -11 -10 -11h-342zM154 606q-32 0 -47.5 16.5t-15.5 43.5v14q0 28 15.5 43.5t47.5 15.5q33 0 48.5 -15.5
t15.5 -43.5v-14q0 -27 -15.5 -43.5t-48.5 -16.5zM341 606q-32 0 -47.5 16.5t-15.5 43.5v14q0 28 15.5 43.5t47.5 15.5t47.5 -15.5t15.5 -43.5v-14q0 -27 -15.5 -43.5t-47.5 -16.5z" />
    <glyph glyph-name="edotaccent.sc" horiz-adv-x="483" 
d="M78 0q-11 0 -11 11v519q0 11 11 11h342q10 0 10 -11v-76q0 -11 -10 -11h-237v-122h216q10 0 10 -11v-72q0 -10 -10 -10h-216v-130h237q10 0 10 -10v-77q0 -11 -10 -11h-342zM249 607q-34 0 -51.5 18t-17.5 46v15q0 29 17.5 46.5t51.5 17.5t51 -17.5t17 -46.5v-15
q0 -28 -17 -46t-51 -18z" />
    <glyph glyph-name="egrave.sc" horiz-adv-x="483" 
d="M78 0q-11 0 -11 11v519q0 11 11 11h342q10 0 10 -11v-76q0 -11 -10 -11h-237v-122h216q10 0 10 -11v-72q0 -10 -10 -10h-216v-130h237q10 0 10 -10v-77q0 -11 -10 -11h-342zM245 594q-10 0 -14 7l-79 107q-4 6 -2.5 10t8.5 4h81q10 0 14 -8l58 -106q8 -14 -7 -14h-59z
" />
    <glyph glyph-name="emacron.sc" horiz-adv-x="483" 
d="M78 0q-11 0 -11 11v519q0 11 11 11h342q10 0 10 -11v-76q0 -11 -10 -11h-237v-122h216q10 0 10 -11v-72q0 -10 -10 -10h-216v-130h237q10 0 10 -10v-77q0 -11 -10 -11h-342zM150 599q-12 0 -12 12v63q0 11 12 11h195q12 0 12 -11v-63q0 -12 -12 -12h-195z" />
    <glyph glyph-name="eogonek.sc" horiz-adv-x="483" 
d="M78 0q-11 0 -11 11v519q0 11 11 11h342q10 0 10 -11v-76q0 -11 -10 -11h-237v-122h216q10 0 10 -11v-72q0 -10 -10 -10h-216v-130h237q10 0 10 -10v-77q0 -11 -10 -11h-342zM353 -199q-51 0 -78 23t-27 60v11q0 45 35 78.5t98 50.5l17 -13v-11q-28 -12 -43 -32t-15 -43
v-8q0 -30 37 -30q8 0 14.5 0.5t13.5 1.5q10 2 10 -8v-64q0 -5 -2 -7t-8 -4q-12 -2 -26 -3.5t-26 -1.5z" />
    <glyph glyph-name="f.sc" horiz-adv-x="457" 
d="M78 0q-11 0 -11 11v519q0 11 11 11h338q11 0 11 -11v-76q0 -11 -11 -11h-233v-130h199q11 0 11 -11v-76q0 -10 -11 -10h-199v-205q0 -11 -11 -11h-94z" />
    <glyph glyph-name="f_f.sc" horiz-adv-x="913" 
d="M78 0q-11 0 -11 11v519q0 11 11 11h338q11 0 11 -11v-76q0 -11 -11 -11h-233v-130h199q11 0 11 -11v-76q0 -10 -11 -10h-199v-205q0 -11 -11 -11h-94zM535 0q-11 0 -11 11v519q0 11 11 11h338q11 0 11 -11v-76q0 -11 -11 -11h-233v-130h199q11 0 11 -11v-76
q0 -10 -11 -10h-199v-205q0 -11 -11 -11h-94z" />
    <glyph glyph-name="f_i.sc" horiz-adv-x="708" 
d="M78 0q-11 0 -11 11v519q0 11 11 11h338q11 0 11 -11v-76q0 -11 -11 -11h-233v-130h199q11 0 11 -11v-76q0 -10 -11 -10h-199v-205q0 -11 -11 -11h-94zM535 0q-11 0 -11 11v519q0 11 12 11h94q11 0 11 -11v-519q0 -11 -11 -11h-95z" />
    <glyph glyph-name="f_j.sc" horiz-adv-x="710" 
d="M78 0q-11 0 -11 11v519q0 11 11 11h338q11 0 11 -11v-76q0 -11 -11 -11h-233v-130h199q11 0 11 -11v-76q0 -10 -11 -10h-199v-205q0 -11 -11 -11h-94zM490 -132q-17 -3 -20 7l-25 79q-1 5 2 9t11 5q34 7 51.5 35.5t17.5 78.5v448q0 11 11 11h95q11 0 11 -11v-439
q0 -67 -17 -113t-51 -73t-86 -37z" />
    <glyph glyph-name="f_l.sc" horiz-adv-x="885" 
d="M78 0q-11 0 -11 11v519q0 11 11 11h338q11 0 11 -11v-76q0 -11 -11 -11h-233v-130h199q11 0 11 -11v-76q0 -10 -11 -10h-199v-205q0 -11 -11 -11h-94zM535 0q-11 0 -11 11v519q0 11 11 11h97q9 0 9 -11v-429h221q11 0 11 -10v-80q0 -11 -11 -11h-327z" />
    <glyph glyph-name="fi.sc" horiz-adv-x="708" 
d="M78 0q-11 0 -11 11v519q0 11 11 11h338q11 0 11 -11v-76q0 -11 -11 -11h-233v-130h199q11 0 11 -11v-76q0 -10 -11 -10h-199v-205q0 -11 -11 -11h-94zM535 0q-11 0 -11 11v519q0 11 12 11h94q11 0 11 -11v-519q0 -11 -11 -11h-95z" />
    <glyph glyph-name="fl.sc" horiz-adv-x="885" 
d="M78 0q-11 0 -11 11v519q0 11 11 11h338q11 0 11 -11v-76q0 -11 -11 -11h-233v-130h199q11 0 11 -11v-76q0 -10 -11 -10h-199v-205q0 -11 -11 -11h-94zM535 0q-11 0 -11 11v519q0 11 11 11h97q9 0 9 -11v-429h221q11 0 11 -10v-80q0 -11 -11 -11h-327z" />
    <glyph glyph-name="g.sc" horiz-adv-x="594" 
d="M275 -12q-65 0 -115 23.5t-77.5 71t-27.5 118.5v142q0 107 62.5 158.5t175.5 51.5q83 0 137 -23t77.5 -64t15.5 -96q-1 -11 -11 -11l-97 1q-9 0 -9 11q0 40 -29 60.5t-83 20.5q-61 0 -91.5 -27.5t-30.5 -85.5v-134q0 -60 31 -88t93 -28q61 0 89 25.5t28 68.5v21h-110
q-12 0 -12 11v61q0 11 12 11h213q11 0 11 -11v-144q0 -29 1 -61.5t6 -59.5q2 -11 -9 -11h-77q-9 0 -11 9q-2 10 -3.5 25t-2.5 33h-1q-13 -24 -33.5 -41.5t-50.5 -27.5t-71 -10z" />
    <glyph glyph-name="gbreve.sc" horiz-adv-x="594" 
d="M275 -12q-65 0 -115 23.5t-77.5 71t-27.5 118.5v142q0 107 62.5 158.5t175.5 51.5q83 0 137 -23t77.5 -64t15.5 -96q-1 -11 -11 -11l-97 1q-9 0 -9 11q0 40 -29 60.5t-83 20.5q-61 0 -91.5 -27.5t-30.5 -85.5v-134q0 -60 31 -88t93 -28q61 0 89 25.5t28 68.5v21h-110
q-12 0 -12 11v61q0 11 12 11h213q11 0 11 -11v-144q0 -29 1 -61.5t6 -59.5q2 -11 -9 -11h-77q-9 0 -11 9q-2 10 -3.5 25t-2.5 33h-1q-13 -24 -33.5 -41.5t-50.5 -27.5t-71 -10zM288 601q-41 0 -73.5 13.5t-43.5 22.5q-7 6 -7 16v64q0 7 4 9.5t9 -1.5q17 -13 47 -26t64 -13
t64 13t47 26q6 4 9.5 1.5t3.5 -9.5v-64q0 -10 -7 -16q-12 -9 -43.5 -22.5t-73.5 -13.5z" />
    <glyph glyph-name="uni0123.sc" horiz-adv-x="594" 
d="M275 -12q-65 0 -115 23.5t-77.5 71t-27.5 118.5v142q0 107 62.5 158.5t175.5 51.5q83 0 137 -23t77.5 -64t15.5 -96q-1 -11 -11 -11l-97 1q-9 0 -9 11q0 40 -29 60.5t-83 20.5q-61 0 -91.5 -27.5t-30.5 -85.5v-134q0 -60 31 -88t93 -28q61 0 89 25.5t28 68.5v21h-110
q-12 0 -12 11v61q0 11 12 11h213q11 0 11 -11v-144q0 -29 1 -61.5t6 -59.5q2 -11 -9 -11h-77q-9 0 -11 9q-2 10 -3.5 25t-2.5 33h-1q-13 -24 -33.5 -41.5t-50.5 -27.5t-71 -10zM258 -246q-9 0 -7 11l14 68q-15 6 -22.5 17.5t-7.5 29.5v18q0 25 15 38t40 13q31 0 45.5 -13
t14.5 -38v-19q0 -13 -2 -25.5t-7 -26.5l-22 -66q-3 -7 -12 -7h-49z" />
    <glyph glyph-name="gdotaccent.sc" horiz-adv-x="594" 
d="M275 -12q-65 0 -115 23.5t-77.5 71t-27.5 118.5v142q0 107 62.5 158.5t175.5 51.5q83 0 137 -23t77.5 -64t15.5 -96q-1 -11 -11 -11l-97 1q-9 0 -9 11q0 40 -29 60.5t-83 20.5q-61 0 -91.5 -27.5t-30.5 -85.5v-134q0 -60 31 -88t93 -28q61 0 89 25.5t28 68.5v21h-110
q-12 0 -12 11v61q0 11 12 11h213q11 0 11 -11v-144q0 -29 1 -61.5t6 -59.5q2 -11 -9 -11h-77q-9 0 -11 9q-2 10 -3.5 25t-2.5 33h-1q-13 -24 -33.5 -41.5t-50.5 -27.5t-71 -10zM289 607q-34 0 -51.5 18t-17.5 46v15q0 29 17.5 46.5t51.5 17.5t51 -17.5t17 -46.5v-15
q0 -28 -17 -46t-51 -18z" />
    <glyph glyph-name="h.sc" horiz-adv-x="598" 
d="M79 0q-12 0 -12 11v519q0 11 12 11h94q11 0 11 -11v-207h230v207q0 11 12 11h93q12 0 12 -11v-519q0 -11 -12 -11h-93q-12 0 -12 11v213h-230v-213q0 -11 -11 -11h-94z" />
    <glyph glyph-name="hbar.sc" horiz-adv-x="597" 
d="M31 400q-11 0 -11 10v63q0 11 11 11h539q11 0 11 -11v-63q0 -10 -11 -10h-38h-463h-38zM79 0q-12 0 -12 11v519q0 11 12 11h94q11 0 11 -11v-207h230v207q0 11 12 11h93q12 0 12 -11v-519q0 -11 -12 -11h-93q-12 0 -12 11v213h-230v-213q0 -11 -11 -11h-94z" />
    <glyph glyph-name="i.sc" horiz-adv-x="251" 
d="M78 0q-11 0 -11 11v519q0 11 12 11h94q11 0 11 -11v-519q0 -11 -11 -11h-95z" />
    <glyph glyph-name="dotlessi.sc" horiz-adv-x="251" 
d="M78 0q-11 0 -11 11v520q0 10 11 10h95q11 0 11 -10v-520q0 -11 -11 -11h-95z" />
    <glyph glyph-name="iacute.sc" horiz-adv-x="251" 
d="M78 0q-11 0 -11 11v519q0 11 12 11h94q11 0 11 -11v-519q0 -11 -11 -11h-95zM66 594q-15 0 -8 14l58 106q5 8 14 8h82q7 0 8.5 -4t-2.5 -10l-79 -107q-5 -7 -14 -7h-59z" />
    <glyph glyph-name="icircumflex.sc" horiz-adv-x="251" 
d="M78 0q-11 0 -11 11v519q0 11 12 11h94q11 0 11 -11v-519q0 -11 -11 -11h-95zM14 596q-13 -5 -13 7v61q0 9 8 13l109 51q8 4 16 0l109 -51q8 -4 8 -13v-61q0 -12 -13 -7l-112 43z" />
    <glyph glyph-name="idieresis.sc" horiz-adv-x="251" 
d="M78 0q-11 0 -11 11v519q0 11 12 11h94q11 0 11 -11v-519q0 -11 -11 -11h-95zM32 606q-32 0 -47.5 16.5t-15.5 43.5v14q0 28 15.5 43.5t47.5 15.5q33 0 48.5 -15.5t15.5 -43.5v-14q0 -27 -15.5 -43.5t-48.5 -16.5zM219 606q-32 0 -47.5 16.5t-15.5 43.5v14q0 28 15.5 43.5
t47.5 15.5t47.5 -15.5t15.5 -43.5v-14q0 -27 -15.5 -43.5t-47.5 -16.5z" />
    <glyph glyph-name="i.loclTRK.sc" horiz-adv-x="251" 
d="M78 0q-11 0 -11 11v519q0 11 12 11h94q11 0 11 -11v-519q0 -11 -11 -11h-95zM126 607q-34 0 -51.5 18t-17.5 46v15q0 29 17.5 46.5t51.5 17.5t51 -17.5t17 -46.5v-15q0 -28 -17 -46t-51 -18z" />
    <glyph glyph-name="igrave.sc" horiz-adv-x="251" 
d="M78 0q-11 0 -11 11v519q0 11 12 11h94q11 0 11 -11v-519q0 -11 -11 -11h-95zM123 594q-10 0 -14 7l-79 107q-4 6 -2.5 10t8.5 4h81q10 0 14 -8l58 -106q8 -14 -7 -14h-59z" />
    <glyph glyph-name="ij.sc" horiz-adv-x="505" 
d="M78 0q-11 0 -11 11v519q0 11 12 11h94q11 0 11 -11v-519q0 -11 -11 -11h-95zM284 -132q-17 -3 -20 7l-25 79q-1 5 2 9t11 5q34 7 51.5 35.5t17.5 78.5v448q0 11 11 11h95q11 0 11 -11v-439q0 -67 -17 -113t-51 -73t-86 -37z" />
    <glyph glyph-name="imacron.sc" horiz-adv-x="251" 
d="M78 0q-11 0 -11 11v519q0 11 12 11h94q11 0 11 -11v-519q0 -11 -11 -11h-95zM28 599q-12 0 -12 12v63q0 11 12 11h195q12 0 12 -11v-63q0 -12 -12 -12h-195z" />
    <glyph glyph-name="iogonek.sc" horiz-adv-x="251" 
d="M78 0q-11 0 -11 11v519q0 11 12 11h94q11 0 11 -11v-519q0 -11 -11 -11h-95zM128 -198q-51 0 -78 23t-27 60v11q0 45 35 78.5t98 50.5l17 -13v-11q-28 -12 -43 -32t-15 -43v-8q0 -30 37 -30q8 0 14.5 0.5t13.5 1.5q10 2 10 -8v-64q0 -5 -2 -7t-8 -4q-12 -2 -26 -3.5
t-26 -1.5z" />
    <glyph glyph-name="j.sc" horiz-adv-x="254" 
d="M33 -132q-17 -3 -20 7l-25 79q-1 5 2 9t11 5q34 7 51.5 35.5t17.5 78.5v448q0 11 11 11h95q11 0 11 -11v-439q0 -67 -17 -113t-51 -73t-86 -37z" />
    <glyph glyph-name="uni0237.sc" horiz-adv-x="254" 
d="M33 -132q-17 -3 -20 7l-25 79q-1 5 2 9t11 5q34 7 51.5 35.5t17.5 78.5v448q0 11 11 11h95q11 0 11 -11v-439q0 -67 -17 -113t-51 -73t-86 -37z" />
    <glyph glyph-name="k.sc" horiz-adv-x="549" 
d="M78 0q-11 0 -11 11v519q0 11 11 11h94q11 0 11 -11v-133q0 -25 -0.5 -50t-1.5 -50h1q17 23 35 46.5t39 47.5l131 145q5 5 14 5h117q6 0 8.5 -3t-2.5 -9l-190 -206l210 -310q3 -5 1 -9t-8 -4h-115q-9 0 -14 7l-152 229l-73 -76v-149q0 -11 -11 -11h-94z" />
    <glyph glyph-name="uni0137.sc" horiz-adv-x="549" 
d="M78 0q-11 0 -11 11v519q0 11 11 11h94q11 0 11 -11v-133q0 -25 -0.5 -50t-1.5 -50h1q17 23 35 46.5t39 47.5l131 145q5 5 14 5h117q6 0 8.5 -3t-2.5 -9l-190 -206l210 -310q3 -5 1 -9t-8 -4h-115q-9 0 -14 7l-152 229l-73 -76v-149q0 -11 -11 -11h-94zM253 -246
q-9 0 -7 11l14 68q-15 6 -22.5 17.5t-7.5 29.5v18q0 25 15 38t40 13q31 0 45.5 -13t14.5 -38v-19q0 -13 -2 -25.5t-7 -26.5l-22 -66q-3 -7 -12 -7h-49z" />
    <glyph glyph-name="kgreenlandic.sc" horiz-adv-x="549" 
d="M78 0q-11 0 -11 11v519q0 11 11 11h94q11 0 11 -11v-133q0 -25 -0.5 -50t-1.5 -50h1q17 23 35 46.5t39 47.5l131 145q5 5 14 5h117q6 0 8.5 -3t-2.5 -9l-190 -206l210 -310q3 -5 1 -9t-8 -4h-115q-9 0 -14 7l-152 229l-73 -76v-149q0 -11 -11 -11h-94z" />
    <glyph glyph-name="l.sc" horiz-adv-x="429" 
d="M78 0q-11 0 -11 11v519q0 11 11 11h97q9 0 9 -11v-429h221q11 0 11 -10v-80q0 -11 -11 -11h-327z" />
    <glyph glyph-name="lacute.sc" horiz-adv-x="429" 
d="M78 0q-11 0 -11 11v519q0 11 11 11h97q9 0 9 -11v-429h221q11 0 11 -10v-80q0 -11 -11 -11h-327zM66 594q-15 0 -8 14l58 106q5 8 14 8h82q7 0 8.5 -4t-2.5 -10l-79 -107q-5 -7 -14 -7h-59z" />
    <glyph glyph-name="lcaron.sc" horiz-adv-x="417" 
d="M274 381q-10 0 -8 10l12 55q-13 5 -20.5 14t-7.5 26v22q0 19 13.5 30.5t38.5 11.5q28 0 41.5 -11t13.5 -31v-23q0 -12 -1.5 -22.5t-6.5 -23.5l-19 -50q-3 -8 -12 -8h-44zM78 0q-11 0 -11 11v519q0 11 11 11h97q9 0 9 -11v-429h221q11 0 11 -10v-80q0 -11 -11 -11h-327z
" />
    <glyph glyph-name="uni013C.sc" horiz-adv-x="429" 
d="M78 0q-11 0 -11 11v519q0 11 11 11h97q9 0 9 -11v-429h221q11 0 11 -10v-80q0 -11 -11 -11h-327zM214 -246q-9 0 -7 11l14 68q-15 6 -22.5 17.5t-7.5 29.5v18q0 25 15 38t40 13q31 0 45.5 -13t14.5 -38v-19q0 -13 -2 -25.5t-7 -26.5l-22 -66q-3 -7 -12 -7h-49z" />
    <glyph glyph-name="lslash.sc" horiz-adv-x="429" 
d="M8 209q-11 -3 -11 8v66q0 8 8 11l279 89q11 4 11 -8v-66q0 -9 -8 -12zM78 0q-11 0 -11 11v519q0 11 11 11h97q9 0 9 -11v-429h221q11 0 11 -10v-80q0 -11 -11 -11h-327z" />
    <glyph glyph-name="m.sc" horiz-adv-x="715" 
d="M68 0q-10 0 -10 10l11 520q0 11 11 11h117q8 0 12 -8l149 -291l147 291q5 8 13 8h117q10 0 10 -10l13 -520q0 -11 -11 -11h-92q-11 0 -11 10l-5 228q-1 34 0 70t4 77h-3q-15 -34 -31 -65.5t-32 -60.5l-105 -198q-4 -7 -13 -7h-4q-8 0 -12 7l-109 205q-15 27 -29.5 56.5
t-29.5 62.5h-2q3 -41 4 -77t0 -69l-6 -228q0 -11 -11 -11h-92z" />
    <glyph glyph-name="n.sc" horiz-adv-x="600" 
d="M78 0q-11 0 -11 11v519q0 11 11 11h125q8 0 13 -7l99 -181q26 -45 45 -81t34.5 -67t29.5 -62h3q-2 34 -4 67t-3 69.5t-1 77.5v173q0 11 10 11h93q10 0 10 -11v-519q0 -11 -10 -11h-122q-9 0 -13 7l-98 179q-24 42 -43.5 78t-35.5 68.5t-32 63.5h-2q2 -49 3 -101t1 -110
v-174q0 -11 -10 -11h-92z" />
    <glyph glyph-name="nacute.sc" horiz-adv-x="600" 
d="M78 0q-11 0 -11 11v519q0 11 11 11h125q8 0 13 -7l99 -181q26 -45 45 -81t34.5 -67t29.5 -62h3q-2 34 -4 67t-3 69.5t-1 77.5v173q0 11 10 11h93q10 0 10 -11v-519q0 -11 -10 -11h-122q-9 0 -13 7l-98 179q-24 42 -43.5 78t-35.5 68.5t-32 63.5h-2q2 -49 3 -101t1 -110
v-174q0 -11 -10 -11h-92zM240 594q-15 0 -8 14l58 106q5 8 14 8h82q7 0 8.5 -4t-2.5 -10l-79 -107q-5 -7 -14 -7h-59z" />
    <glyph glyph-name="ncaron.sc" horiz-adv-x="600" 
d="M78 0q-11 0 -11 11v519q0 11 11 11h125q8 0 13 -7l99 -181q26 -45 45 -81t34.5 -67t29.5 -62h3q-2 34 -4 67t-3 69.5t-1 77.5v173q0 11 10 11h93q10 0 10 -11v-519q0 -11 -10 -11h-122q-9 0 -13 7l-98 179q-24 42 -43.5 78t-35.5 68.5t-32 63.5h-2q2 -49 3 -101t1 -110
v-174q0 -11 -10 -11h-92zM292 597l-109 51q-8 4 -8 13v61q0 12 13 7l112 -43l112 43q13 5 13 -7v-61q0 -9 -8 -13l-109 -51q-8 -3 -16 0z" />
    <glyph glyph-name="uni0146.sc" horiz-adv-x="600" 
d="M78 0q-11 0 -11 11v519q0 11 11 11h125q8 0 13 -7l99 -181q26 -45 45 -81t34.5 -67t29.5 -62h3q-2 34 -4 67t-3 69.5t-1 77.5v173q0 11 10 11h93q10 0 10 -11v-519q0 -11 -10 -11h-122q-9 0 -13 7l-98 179q-24 42 -43.5 78t-35.5 68.5t-32 63.5h-2q2 -49 3 -101t1 -110
v-174q0 -11 -10 -11h-92zM265 -246q-9 0 -7 11l14 68q-15 6 -22.5 17.5t-7.5 29.5v18q0 25 15 38t40 13q31 0 45.5 -13t14.5 -38v-19q0 -13 -2 -25.5t-7 -26.5l-22 -66q-3 -7 -12 -7h-49z" />
    <glyph glyph-name="eng.sc" horiz-adv-x="600" 
d="M406 -155l-51 64q-3 4 -2 8.5t6 7.5q21 14 36.5 32t21.5 43h-17q-9 0 -13 7l-116 208q-23 42 -46.5 87.5t-46.5 93.5h-2q2 -49 3 -98.5t1 -94.5v-192q0 -11 -10 -11h-92q-11 0 -11 11v519q0 11 11 11h125q8 0 13 -7l119 -214q24 -43 46 -87t43 -90h3q-4 50 -6 99.5
t-2 94.5v193q0 11 10 11h93q10 0 10 -11v-464q0 -54 -11 -96t-35 -73t-66 -54q-8 -5 -14 2z" />
    <glyph glyph-name="ntilde.sc" horiz-adv-x="600" 
d="M78 0q-11 0 -11 11v519q0 11 11 11h125q8 0 13 -7l99 -181q26 -45 45 -81t34.5 -67t29.5 -62h3q-2 34 -4 67t-3 69.5t-1 77.5v173q0 11 10 11h93q10 0 10 -11v-519q0 -11 -10 -11h-122q-9 0 -13 7l-98 179q-24 42 -43.5 78t-35.5 68.5t-32 63.5h-2q2 -49 3 -101t1 -110
v-174q0 -11 -10 -11h-92zM351 596q-20 0 -37.5 6t-33.5 11t-33 5t-32 -5.5t-26 -10.5q-13 -6 -13 7v58q0 10 6 14q10 6 27.5 13.5t41.5 7.5q23 0 40 -5t31 -10.5t30 -5.5t31.5 5.5t26.5 10.5q14 6 14 -7v-58q0 -10 -7 -14q-9 -5 -25 -13.5t-41 -8.5z" />
    <glyph glyph-name="o.sc" horiz-adv-x="583" 
d="M292 -12q-117 0 -177 54t-60 157v144q0 103 60 156.5t177 53.5t176.5 -53.5t59.5 -156.5v-144q0 -103 -59.5 -157t-176.5 -54zM292 89q58 0 88.5 30.5t30.5 87.5v127q0 58 -30.5 88t-88.5 30q-59 0 -89.5 -30t-30.5 -88v-127q0 -57 30.5 -87.5t89.5 -30.5z" />
    <glyph glyph-name="oacute.sc" horiz-adv-x="583" 
d="M292 -12q-117 0 -177 54t-60 157v144q0 103 60 156.5t177 53.5t176.5 -53.5t59.5 -156.5v-144q0 -103 -59.5 -157t-176.5 -54zM292 89q58 0 88.5 30.5t30.5 87.5v127q0 58 -30.5 88t-88.5 30q-59 0 -89.5 -30t-30.5 -88v-127q0 -57 30.5 -87.5t89.5 -30.5zM232 594
q-15 0 -8 14l58 106q5 8 14 8h82q7 0 8.5 -4t-2.5 -10l-79 -107q-5 -7 -14 -7h-59z" />
    <glyph glyph-name="ocircumflex.sc" horiz-adv-x="583" 
d="M292 -12q-117 0 -177 54t-60 157v144q0 103 60 156.5t177 53.5t176.5 -53.5t59.5 -156.5v-144q0 -103 -59.5 -157t-176.5 -54zM292 89q58 0 88.5 30.5t30.5 87.5v127q0 58 -30.5 88t-88.5 30q-59 0 -89.5 -30t-30.5 -88v-127q0 -57 30.5 -87.5t89.5 -30.5zM179 596
q-13 -5 -13 7v61q0 9 8 13l109 51q8 4 16 0l109 -51q8 -4 8 -13v-61q0 -12 -13 -7l-112 43z" />
    <glyph glyph-name="odieresis.sc" horiz-adv-x="583" 
d="M292 -12q-117 0 -177 54t-60 157v144q0 103 60 156.5t177 53.5t176.5 -53.5t59.5 -156.5v-144q0 -103 -59.5 -157t-176.5 -54zM292 89q58 0 88.5 30.5t30.5 87.5v127q0 58 -30.5 88t-88.5 30q-59 0 -89.5 -30t-30.5 -88v-127q0 -57 30.5 -87.5t89.5 -30.5zM198 606
q-32 0 -47.5 16.5t-15.5 43.5v14q0 28 15.5 43.5t47.5 15.5q33 0 48.5 -15.5t15.5 -43.5v-14q0 -27 -15.5 -43.5t-48.5 -16.5zM385 606q-32 0 -47.5 16.5t-15.5 43.5v14q0 28 15.5 43.5t47.5 15.5t47.5 -15.5t15.5 -43.5v-14q0 -27 -15.5 -43.5t-47.5 -16.5z" />
    <glyph glyph-name="ograve.sc" horiz-adv-x="583" 
d="M292 -12q-117 0 -177 54t-60 157v144q0 103 60 156.5t177 53.5t176.5 -53.5t59.5 -156.5v-144q0 -103 -59.5 -157t-176.5 -54zM292 89q58 0 88.5 30.5t30.5 87.5v127q0 58 -30.5 88t-88.5 30q-59 0 -89.5 -30t-30.5 -88v-127q0 -57 30.5 -87.5t89.5 -30.5zM289 594
q-10 0 -14 7l-79 107q-4 6 -2.5 10t8.5 4h81q10 0 14 -8l58 -106q8 -14 -7 -14h-59z" />
    <glyph glyph-name="ohungarumlaut.sc" horiz-adv-x="583" 
d="M292 -12q-117 0 -177 54t-60 157v144q0 103 60 156.5t177 53.5t176.5 -53.5t59.5 -156.5v-144q0 -103 -59.5 -157t-176.5 -54zM292 89q58 0 88.5 30.5t30.5 87.5v127q0 58 -30.5 88t-88.5 30q-59 0 -89.5 -30t-30.5 -88v-127q0 -57 30.5 -87.5t89.5 -30.5zM331 594
q-13 0 -8 12l46 108q4 9 13 9h82q14 0 7 -14l-60 -107q-4 -8 -14 -8h-66zM181 594q-13 0 -8 12l46 108q4 9 14 9h81q14 0 7 -14l-60 -107q-4 -8 -14 -8h-66z" />
    <glyph glyph-name="omacron.sc" horiz-adv-x="583" 
d="M292 -12q-117 0 -177 54t-60 157v144q0 103 60 156.5t177 53.5t176.5 -53.5t59.5 -156.5v-144q0 -103 -59.5 -157t-176.5 -54zM292 89q58 0 88.5 30.5t30.5 87.5v127q0 58 -30.5 88t-88.5 30q-59 0 -89.5 -30t-30.5 -88v-127q0 -57 30.5 -87.5t89.5 -30.5zM194 599
q-12 0 -12 12v63q0 11 12 11h195q12 0 12 -11v-63q0 -12 -12 -12h-195z" />
    <glyph glyph-name="oslash.sc" horiz-adv-x="583" 
d="M57 -49q-7 0 -9 3.5t2 9.5l70 112l39 48l218 346l14 39l46 73q4 7 13 7h78q6 0 8 -3.5t-1 -9.5l-68 -109l-38 -45l-220 -350l-14 -40l-47 -74q-5 -7 -13 -7h-78zM292 -12q-117 0 -177 54t-60 157v144q0 103 60 156.5t177 53.5t176.5 -53.5t59.5 -156.5v-144
q0 -103 -59.5 -157t-176.5 -54zM292 89q58 0 88.5 30.5t30.5 87.5v127q0 58 -30.5 88t-88.5 30q-59 0 -89.5 -30t-30.5 -88v-127q0 -57 30.5 -87.5t89.5 -30.5z" />
    <glyph glyph-name="otilde.sc" horiz-adv-x="583" 
d="M292 -12q-117 0 -177 54t-60 157v144q0 103 60 156.5t177 53.5t176.5 -53.5t59.5 -156.5v-144q0 -103 -59.5 -157t-176.5 -54zM292 89q58 0 88.5 30.5t30.5 87.5v127q0 58 -30.5 88t-88.5 30q-59 0 -89.5 -30t-30.5 -88v-127q0 -57 30.5 -87.5t89.5 -30.5zM343 596
q-20 0 -37.5 6t-33.5 11t-33 5t-32 -5.5t-26 -10.5q-13 -6 -13 7v58q0 10 6 14q10 6 27.5 13.5t41.5 7.5q23 0 40 -5t31 -10.5t30 -5.5t31.5 5.5t26.5 10.5q14 6 14 -7v-58q0 -10 -7 -14q-9 -5 -25 -13.5t-41 -8.5z" />
    <glyph glyph-name="oe.sc" horiz-adv-x="787" 
d="M291 -11q-118 0 -177 53.5t-59 157.5v143q0 103 59.5 156.5t176.5 53.5q23 0 49.5 -3t45.5 -8l338 -1q11 0 11 -11v-76q0 -11 -11 -11h-236v-122h215q10 0 10 -11v-72q0 -10 -10 -10h-215v-130h236q11 0 11 -10v-77q0 -11 -11 -11h-337q-22 -5 -46 -8t-50 -3zM293 89
q25 0 44.5 2.5t34.5 6.5v344q-15 4 -36.5 7t-42.5 3q-60 0 -90.5 -30t-30.5 -85v-132q0 -56 30.5 -86t90.5 -30z" />
    <glyph glyph-name="p.sc" horiz-adv-x="500" 
d="M78 0q-11 0 -11 11v519q0 11 11 11h171q79 0 128.5 -20.5t72.5 -60.5t23 -100q0 -86 -55 -132.5t-169 -46.5h-65v-170q0 -11 -11 -11h-95zM184 278h65q56 0 82 20.5t26 63.5q0 45 -25 63t-81 18h-67v-165z" />
    <glyph glyph-name="thorn.sc" horiz-adv-x="500" 
d="M78 0q-11 0 -11 11v520q0 10 11 10h95q11 0 11 -10v-73h65q79 0 128.5 -20.5t72.5 -60.5t23 -100q0 -86 -55 -132.5t-169 -46.5h-65v-87q0 -11 -11 -11h-95zM184 195h65q56 0 82 20.5t26 63.5q0 44 -25 62.5t-81 18.5h-67v-165z" />
    <glyph glyph-name="q.sc" horiz-adv-x="583" 
d="M411 -153q-64 0 -96.5 45t-32.5 141q0 10 11 10l78 -1q11 0 11 -11q0 -47 11 -71t40 -24q9 0 16.5 1.5t14.5 3.5q6 1 9 -1.5t3 -8.5v-59q0 -9 -9 -14q-10 -4 -23 -7.5t-33 -3.5zM292 -12q-117 0 -177 54t-60 157v144q0 103 60 156.5t177 53.5t176.5 -53.5t59.5 -156.5
v-144q0 -103 -59.5 -157t-176.5 -54zM292 89q58 0 88.5 30.5t30.5 87.5v127q0 58 -30.5 88t-88.5 30q-59 0 -89.5 -30t-30.5 -88v-127q0 -57 30.5 -87.5t89.5 -30.5z" />
    <glyph glyph-name="r.sc" horiz-adv-x="548" 
d="M78 0q-11 0 -11 11v519q0 11 11 11h192q116 0 168.5 -40.5t52.5 -121.5q0 -58 -30.5 -99t-83.5 -52v-1q13 -17 24.5 -34t23.5 -34l99 -146q3 -5 1 -9t-8 -4h-112q-8 0 -13 7l-131 201h-78v-197q0 -11 -11 -11h-94zM183 296h84q57 0 82 18.5t25 59.5q0 35 -23 52.5
t-80 17.5h-88v-148z" />
    <glyph glyph-name="racute.sc" horiz-adv-x="548" 
d="M78 0q-11 0 -11 11v519q0 11 11 11h192q116 0 168.5 -40.5t52.5 -121.5q0 -58 -30.5 -99t-83.5 -52v-1q13 -17 24.5 -34t23.5 -34l99 -146q3 -5 1 -9t-8 -4h-112q-8 0 -13 7l-131 201h-78v-197q0 -11 -11 -11h-94zM183 296h84q57 0 82 18.5t25 59.5q0 35 -23 52.5
t-80 17.5h-88v-148zM197 594q-15 0 -8 14l58 106q5 8 14 8h82q7 0 8.5 -4t-2.5 -10l-79 -107q-5 -7 -14 -7h-59z" />
    <glyph glyph-name="rcaron.sc" horiz-adv-x="548" 
d="M78 0q-11 0 -11 11v519q0 11 11 11h192q116 0 168.5 -40.5t52.5 -121.5q0 -58 -30.5 -99t-83.5 -52v-1q13 -17 24.5 -34t23.5 -34l99 -146q3 -5 1 -9t-8 -4h-112q-8 0 -13 7l-131 201h-78v-197q0 -11 -11 -11h-94zM183 296h84q57 0 82 18.5t25 59.5q0 35 -23 52.5
t-80 17.5h-88v-148zM248 597l-109 51q-8 4 -8 13v61q0 12 13 7l112 -43l112 43q13 5 13 -7v-61q0 -9 -8 -13l-109 -51q-8 -3 -16 0z" />
    <glyph glyph-name="uni0157.sc" horiz-adv-x="548" 
d="M78 0q-11 0 -11 11v519q0 11 11 11h192q116 0 168.5 -40.5t52.5 -121.5q0 -58 -30.5 -99t-83.5 -52v-1q13 -17 24.5 -34t23.5 -34l99 -146q3 -5 1 -9t-8 -4h-112q-8 0 -13 7l-131 201h-78v-197q0 -11 -11 -11h-94zM183 296h84q57 0 82 18.5t25 59.5q0 35 -23 52.5
t-80 17.5h-88v-148zM244 -246q-9 0 -7 11l14 68q-15 6 -22.5 17.5t-7.5 29.5v18q0 25 15 38t40 13q31 0 45.5 -13t14.5 -38v-19q0 -13 -2 -25.5t-7 -26.5l-22 -66q-3 -7 -12 -7h-49z" />
    <glyph glyph-name="s.sc" horiz-adv-x="510" 
d="M251 -12q-114 0 -167.5 42.5t-44.5 124.5q2 13 13 13h94q13 0 11 -14q-3 -35 21.5 -53t74.5 -18q51 0 75.5 14t24.5 43q0 15 -6 26.5t-20 21t-38 18.5l-136 55q-38 16 -62.5 36.5t-35.5 48t-11 62.5q1 75 52 110t151 35q110 0 167.5 -42t48.5 -122q-2 -15 -11 -15h-96
q-11 0 -10 15q1 32 -23 50.5t-75 18.5q-44 0 -65 -11.5t-22 -38.5q0 -16 6 -27t21 -20t39 -18l135 -55q40 -16 63.5 -35.5t34.5 -46t10 -63.5q0 -81 -55.5 -118t-163.5 -37z" />
    <glyph glyph-name="sacute.sc" horiz-adv-x="510" 
d="M251 -12q-114 0 -167.5 42.5t-44.5 124.5q2 13 13 13h94q13 0 11 -14q-3 -35 21.5 -53t74.5 -18q51 0 75.5 14t24.5 43q0 15 -6 26.5t-20 21t-38 18.5l-136 55q-38 16 -62.5 36.5t-35.5 48t-11 62.5q1 75 52 110t151 35q110 0 167.5 -42t48.5 -122q-2 -15 -11 -15h-96
q-11 0 -10 15q1 32 -23 50.5t-75 18.5q-44 0 -65 -11.5t-22 -38.5q0 -16 6 -27t21 -20t39 -18l135 -55q40 -16 63.5 -35.5t34.5 -46t10 -63.5q0 -81 -55.5 -118t-163.5 -37zM185 594q-15 0 -8 14l58 106q5 8 14 8h82q7 0 8.5 -4t-2.5 -10l-79 -107q-5 -7 -14 -7h-59z" />
    <glyph glyph-name="scaron.sc" horiz-adv-x="510" 
d="M251 -12q-114 0 -167.5 42.5t-44.5 124.5q2 13 13 13h94q13 0 11 -14q-3 -35 21.5 -53t74.5 -18q51 0 75.5 14t24.5 43q0 15 -6 26.5t-20 21t-38 18.5l-136 55q-38 16 -62.5 36.5t-35.5 48t-11 62.5q1 75 52 110t151 35q110 0 167.5 -42t48.5 -122q-2 -15 -11 -15h-96
q-11 0 -10 15q1 32 -23 50.5t-75 18.5q-44 0 -65 -11.5t-22 -38.5q0 -16 6 -27t21 -20t39 -18l135 -55q40 -16 63.5 -35.5t34.5 -46t10 -63.5q0 -81 -55.5 -118t-163.5 -37zM236 597l-109 51q-8 4 -8 13v61q0 12 13 7l112 -43l112 43q13 5 13 -7v-61q0 -9 -8 -13l-109 -51
q-8 -3 -16 0z" />
    <glyph glyph-name="scedilla.sc" horiz-adv-x="510" 
d="M251 -12q-114 0 -167.5 42.5t-44.5 124.5q2 13 13 13h94q13 0 11 -14q-3 -35 21.5 -53t74.5 -18q51 0 75.5 14t24.5 43q0 15 -6 26.5t-20 21t-38 18.5l-136 55q-38 16 -62.5 36.5t-35.5 48t-11 62.5q1 75 52 110t151 35q110 0 167.5 -42t48.5 -122q-2 -15 -11 -15h-96
q-11 0 -10 15q1 32 -23 50.5t-75 18.5q-44 0 -65 -11.5t-22 -38.5q0 -16 6 -27t21 -20t39 -18l135 -55q40 -16 63.5 -35.5t34.5 -46t10 -63.5q0 -81 -55.5 -118t-163.5 -37zM240 -197q-14 0 -26 1t-24 3q-9 2 -9 10v46q0 10 9 9q6 -1 14.5 -1.5t14.5 -0.5q21 0 30 6t9 16v10
q0 14 -8 19t-24 5h-23q-7 0 -7 7q0 5 0.5 11t1.5 10l25 78q2 7 10 7h63q10 0 6 -12l-21 -63h9q27 0 42 -17t15 -46v-16q0 -40 -26 -61t-81 -21z" />
    <glyph glyph-name="uni0219.sc" horiz-adv-x="510" 
d="M251 -12q-114 0 -167.5 42.5t-44.5 124.5q2 13 13 13h94q13 0 11 -14q-3 -35 21.5 -53t74.5 -18q51 0 75.5 14t24.5 43q0 15 -6 26.5t-20 21t-38 18.5l-136 55q-38 16 -62.5 36.5t-35.5 48t-11 62.5q1 75 52 110t151 35q110 0 167.5 -42t48.5 -122q-2 -15 -11 -15h-96
q-11 0 -10 15q1 32 -23 50.5t-75 18.5q-44 0 -65 -11.5t-22 -38.5q0 -16 6 -27t21 -20t39 -18l135 -55q40 -16 63.5 -35.5t34.5 -46t10 -63.5q0 -81 -55.5 -118t-163.5 -37zM229 -246q-9 0 -7 11l14 68q-15 6 -22.5 17.5t-7.5 29.5v18q0 25 15 38t40 13q31 0 45.5 -13
t14.5 -38v-19q0 -13 -2 -25.5t-7 -26.5l-22 -66q-3 -7 -12 -7h-49z" />
    <glyph glyph-name="germandbls.sc" horiz-adv-x="592" 
d="M378 -12q-60 0 -96.5 16t-50.5 47t-10 74q1 8 4.5 11t7.5 3l83 -1q10 0 10 -13q-1 -19 13 -29t40 -10q36 0 52 19.5t16 59.5q0 42 -22.5 60t-76.5 18h-59q-12 0 -12 12v35q0 7 4 12l81 141h-178v-432q0 -11 -11 -11h-95q-11 0 -11 11v519q0 11 11 11h436q8 0 10 -6
t-3 -14l-116 -195q82 -9 119.5 -50.5t37.5 -114.5q0 -90 -47 -131.5t-137 -41.5z" />
    <glyph glyph-name="t.sc" horiz-adv-x="479" 
d="M192 0q-11 0 -11 11v429h-149q-10 0 -10 11v79q0 11 10 11h415q10 0 10 -11v-79q0 -11 -10 -11h-149v-429q0 -11 -11 -11h-95z" />
    <glyph glyph-name="tbar.sc" horiz-adv-x="479" 
d="M104 217q-10 0 -10 10v63q0 10 10 10h273q11 0 11 -10v-63q0 -10 -11 -10h-78h-116h-79zM192 0q-11 0 -11 11v429h-149q-10 0 -10 11v79q0 11 10 11h415q10 0 10 -11v-79q0 -11 -10 -11h-149v-429q0 -11 -11 -11h-95z" />
    <glyph glyph-name="tcaron.sc" horiz-adv-x="479" 
d="M192 0q-11 0 -11 11v429h-149q-10 0 -10 11v79q0 11 10 11h415q10 0 10 -11v-79q0 -11 -10 -11h-149v-429q0 -11 -11 -11h-95zM232 597l-109 51q-8 4 -8 13v61q0 12 13 7l112 -43l112 43q13 5 13 -7v-61q0 -9 -8 -13l-109 -51q-8 -3 -16 0z" />
    <glyph glyph-name="uni0163.sc" horiz-adv-x="479" 
d="M192 0q-11 0 -11 11v429h-149q-10 0 -10 11v79q0 11 10 11h415q10 0 10 -11v-79q0 -11 -10 -11h-149v-429q0 -11 -11 -11h-95zM216 -197q-14 0 -26 1t-24 3q-9 2 -9 10v46q0 10 9 9q6 -1 14.5 -1.5t14.5 -0.5q21 0 30 6t9 16v10q0 14 -8 19t-24 5h-23q-7 0 -7 7
q0 5 0.5 11t1.5 10l25 78q2 7 10 7h63q10 0 6 -12l-21 -63h9q27 0 42 -17t15 -46v-16q0 -40 -26 -61t-81 -21z" />
    <glyph glyph-name="uni021B.sc" horiz-adv-x="479" 
d="M192 0q-11 0 -11 11v429h-149q-10 0 -10 11v79q0 11 10 11h415q10 0 10 -11v-79q0 -11 -10 -11h-149v-429q0 -11 -11 -11h-95zM205 -246q-9 0 -7 11l14 68q-15 6 -22.5 17.5t-7.5 29.5v18q0 25 15 38t40 13q31 0 45.5 -13t14.5 -38v-19q0 -13 -2 -25.5t-7 -26.5l-22 -66
q-3 -7 -12 -7h-49z" />
    <glyph glyph-name="u.sc" horiz-adv-x="578" 
d="M289 -12q-110 0 -168.5 50.5t-58.5 159.5v332q0 11 11 11h95q11 0 11 -11v-329q0 -54 27 -83t83 -29t83 29t27 83v329q0 11 11 11h95q11 0 11 -11v-333q0 -108 -58.5 -158.5t-168.5 -50.5z" />
    <glyph glyph-name="uacute.sc" horiz-adv-x="578" 
d="M289 -12q-110 0 -168.5 50.5t-58.5 159.5v332q0 11 11 11h95q11 0 11 -11v-329q0 -54 27 -83t83 -29t83 29t27 83v329q0 11 11 11h95q11 0 11 -11v-333q0 -108 -58.5 -158.5t-168.5 -50.5zM230 594q-15 0 -8 14l58 106q5 8 14 8h82q7 0 8.5 -4t-2.5 -10l-79 -107
q-5 -7 -14 -7h-59z" />
    <glyph glyph-name="ucircumflex.sc" horiz-adv-x="578" 
d="M289 -12q-110 0 -168.5 50.5t-58.5 159.5v332q0 11 11 11h95q11 0 11 -11v-329q0 -54 27 -83t83 -29t83 29t27 83v329q0 11 11 11h95q11 0 11 -11v-333q0 -108 -58.5 -158.5t-168.5 -50.5zM177 596q-13 -5 -13 7v61q0 9 8 13l109 51q8 4 16 0l109 -51q8 -4 8 -13v-61
q0 -12 -13 -7l-112 43z" />
    <glyph glyph-name="udieresis.sc" horiz-adv-x="578" 
d="M289 -12q-110 0 -168.5 50.5t-58.5 159.5v332q0 11 11 11h95q11 0 11 -11v-329q0 -54 27 -83t83 -29t83 29t27 83v329q0 11 11 11h95q11 0 11 -11v-333q0 -108 -58.5 -158.5t-168.5 -50.5zM196 606q-32 0 -47.5 16.5t-15.5 43.5v14q0 28 15.5 43.5t47.5 15.5
q33 0 48.5 -15.5t15.5 -43.5v-14q0 -27 -15.5 -43.5t-48.5 -16.5zM383 606q-32 0 -47.5 16.5t-15.5 43.5v14q0 28 15.5 43.5t47.5 15.5t47.5 -15.5t15.5 -43.5v-14q0 -27 -15.5 -43.5t-47.5 -16.5z" />
    <glyph glyph-name="ugrave.sc" horiz-adv-x="578" 
d="M289 -12q-110 0 -168.5 50.5t-58.5 159.5v332q0 11 11 11h95q11 0 11 -11v-329q0 -54 27 -83t83 -29t83 29t27 83v329q0 11 11 11h95q11 0 11 -11v-333q0 -108 -58.5 -158.5t-168.5 -50.5zM287 594q-10 0 -14 7l-79 107q-4 6 -2.5 10t8.5 4h81q10 0 14 -8l58 -106
q8 -14 -7 -14h-59z" />
    <glyph glyph-name="uhungarumlaut.sc" horiz-adv-x="578" 
d="M289 -12q-110 0 -168.5 50.5t-58.5 159.5v332q0 11 11 11h95q11 0 11 -11v-329q0 -54 27 -83t83 -29t83 29t27 83v329q0 11 11 11h95q11 0 11 -11v-333q0 -108 -58.5 -158.5t-168.5 -50.5zM329 594q-13 0 -8 12l46 108q4 9 13 9h82q14 0 7 -14l-60 -107q-4 -8 -14 -8h-66
zM179 594q-13 0 -8 12l46 108q4 9 14 9h81q14 0 7 -14l-60 -107q-4 -8 -14 -8h-66z" />
    <glyph glyph-name="umacron.sc" horiz-adv-x="578" 
d="M289 -12q-110 0 -168.5 50.5t-58.5 159.5v332q0 11 11 11h95q11 0 11 -11v-329q0 -54 27 -83t83 -29t83 29t27 83v329q0 11 11 11h95q11 0 11 -11v-333q0 -108 -58.5 -158.5t-168.5 -50.5zM192 599q-12 0 -12 12v63q0 11 12 11h195q12 0 12 -11v-63q0 -12 -12 -12h-195z
" />
    <glyph glyph-name="uogonek.sc" horiz-adv-x="578" 
d="M289 -12q-110 0 -168.5 50.5t-58.5 159.5v332q0 11 11 11h95q11 0 11 -11v-329q0 -54 27 -83t83 -29t83 29t27 83v329q0 11 11 11h95q11 0 11 -11v-333q0 -108 -58.5 -158.5t-168.5 -50.5zM342 -199q-51 0 -78 23t-27 60v11q0 45 35 78.5t98 50.5l17 -13v-11
q-28 -12 -43 -32t-15 -43v-8q0 -30 37 -30q8 0 14.5 0.5t13.5 1.5q10 2 10 -8v-64q0 -5 -2 -7t-8 -4q-12 -2 -26 -3.5t-26 -1.5z" />
    <glyph glyph-name="uring.sc" horiz-adv-x="578" 
d="M289 -12q-110 0 -168.5 50.5t-58.5 159.5v332q0 11 11 11h95q11 0 11 -11v-329q0 -54 27 -83t83 -29t83 29t27 83v329q0 11 11 11h95q11 0 11 -11v-333q0 -108 -58.5 -158.5t-168.5 -50.5zM289 579q-51 0 -82 23.5t-31 73.5q0 49 31 73t82 24t82 -24t31 -73
q0 -50 -30.5 -73.5t-82.5 -23.5zM289 641q20 0 28.5 9.5t8.5 26.5t-8.5 26.5t-28.5 9.5q-19 0 -27.5 -9.5t-8.5 -26.5t8.5 -26.5t27.5 -9.5z" />
    <glyph glyph-name="v.sc" horiz-adv-x="530" 
d="M203 0q-9 0 -13 8l-185 521q-4 12 8 12h107q10 0 13 -9l102 -319q9 -28 16.5 -56.5t14.5 -57.5h1q7 29 14 57t16 55l103 322q3 8 12 8h105q12 0 8 -11l-184 -522q-4 -8 -13 -8h-125z" />
    <glyph glyph-name="w.sc" horiz-adv-x="772" 
d="M175 0q-9 0 -12 9l-153 520q-3 12 10 12h93q10 0 12 -8l81 -290q9 -31 17 -64t13 -61h1q9 28 17.5 55.5t17.5 54.5l66 193l-32 97q-2 6 1 8.5t8 2.5h94q9 0 12 -9l84 -281q9 -29 17.5 -61t15.5 -60h1q6 29 13 60t16 67l78 287q2 9 12 9h95q13 0 9 -12l-150 -520
q-2 -9 -11 -9h-115q-9 0 -12 10l-51 167q-8 27 -15.5 53.5t-16.5 54.5h-2q-8 -27 -17 -54.5t-18 -54.5l-56 -168q-3 -8 -12 -8h-111z" />
    <glyph glyph-name="wacute.sc" horiz-adv-x="772" 
d="M175 0q-9 0 -12 9l-153 520q-3 12 10 12h93q10 0 12 -8l81 -290q9 -31 17 -64t13 -61h1q9 28 17.5 55.5t17.5 54.5l66 193l-32 97q-2 6 1 8.5t8 2.5h94q9 0 12 -9l84 -281q9 -29 17.5 -61t15.5 -60h1q6 29 13 60t16 67l78 287q2 9 12 9h95q13 0 9 -12l-150 -520
q-2 -9 -11 -9h-115q-9 0 -12 10l-51 167q-8 27 -15.5 53.5t-16.5 54.5h-2q-8 -27 -17 -54.5t-18 -54.5l-56 -168q-3 -8 -12 -8h-111zM327 594q-15 0 -8 14l58 106q5 8 14 8h82q7 0 8.5 -4t-2.5 -10l-79 -107q-5 -7 -14 -7h-59z" />
    <glyph glyph-name="wcircumflex.sc" horiz-adv-x="772" 
d="M175 0q-9 0 -12 9l-153 520q-3 12 10 12h93q10 0 12 -8l81 -290q9 -31 17 -64t13 -61h1q9 28 17.5 55.5t17.5 54.5l66 193l-32 97q-2 6 1 8.5t8 2.5h94q9 0 12 -9l84 -281q9 -29 17.5 -61t15.5 -60h1q6 29 13 60t16 67l78 287q2 9 12 9h95q13 0 9 -12l-150 -520
q-2 -9 -11 -9h-115q-9 0 -12 10l-51 167q-8 27 -15.5 53.5t-16.5 54.5h-2q-8 -27 -17 -54.5t-18 -54.5l-56 -168q-3 -8 -12 -8h-111zM275 596q-13 -5 -13 7v61q0 9 8 13l109 51q8 4 16 0l109 -51q8 -4 8 -13v-61q0 -12 -13 -7l-112 43z" />
    <glyph glyph-name="wdieresis.sc" horiz-adv-x="772" 
d="M175 0q-9 0 -12 9l-153 520q-3 12 10 12h93q10 0 12 -8l81 -290q9 -31 17 -64t13 -61h1q9 28 17.5 55.5t17.5 54.5l66 193l-32 97q-2 6 1 8.5t8 2.5h94q9 0 12 -9l84 -281q9 -29 17.5 -61t15.5 -60h1q6 29 13 60t16 67l78 287q2 9 12 9h95q13 0 9 -12l-150 -520
q-2 -9 -11 -9h-115q-9 0 -12 10l-51 167q-8 27 -15.5 53.5t-16.5 54.5h-2q-8 -27 -17 -54.5t-18 -54.5l-56 -168q-3 -8 -12 -8h-111zM293 606q-32 0 -47.5 16.5t-15.5 43.5v14q0 28 15.5 43.5t47.5 15.5q33 0 48.5 -15.5t15.5 -43.5v-14q0 -27 -15.5 -43.5t-48.5 -16.5z
M480 606q-32 0 -47.5 16.5t-15.5 43.5v14q0 28 15.5 43.5t47.5 15.5t47.5 -15.5t15.5 -43.5v-14q0 -27 -15.5 -43.5t-47.5 -16.5z" />
    <glyph glyph-name="wgrave.sc" horiz-adv-x="772" 
d="M175 0q-9 0 -12 9l-153 520q-3 12 10 12h93q10 0 12 -8l81 -290q9 -31 17 -64t13 -61h1q9 28 17.5 55.5t17.5 54.5l66 193l-32 97q-2 6 1 8.5t8 2.5h94q9 0 12 -9l84 -281q9 -29 17.5 -61t15.5 -60h1q6 29 13 60t16 67l78 287q2 9 12 9h95q13 0 9 -12l-150 -520
q-2 -9 -11 -9h-115q-9 0 -12 10l-51 167q-8 27 -15.5 53.5t-16.5 54.5h-2q-8 -27 -17 -54.5t-18 -54.5l-56 -168q-3 -8 -12 -8h-111zM384 594q-10 0 -14 7l-79 107q-4 6 -2.5 10t8.5 4h81q10 0 14 -8l58 -106q8 -14 -7 -14h-59z" />
    <glyph glyph-name="x.sc" horiz-adv-x="518" 
d="M10 0q-6 0 -8 4t2 9l185 266l-174 250q-3 6 -1.5 9t7.5 3h115q7 0 12 -7l66 -100q12 -18 23.5 -37.5t23.5 -41.5h1q13 22 24 42t23 38l65 100q4 6 13 6h111q7 0 8.5 -3t-1.5 -9l-174 -251l183 -265q4 -5 2 -9t-9 -4h-114q-8 0 -13 7l-67 102q-13 22 -27 44t-27 46h-1
q-13 -24 -27.5 -47t-27.5 -44l-67 -101q-4 -7 -13 -7h-113z" />
    <glyph glyph-name="y.sc" horiz-adv-x="506" 
d="M206 0q-11 0 -11 11v177l-191 341q-3 6 -0.5 9t7.5 3h110q8 0 12 -7l76 -145q11 -22 22.5 -46.5t22.5 -51.5h2q12 28 22.5 52t22.5 46l74 145q3 7 12 7h108q6 0 8 -3t-1 -9l-190 -341v-177q0 -11 -11 -11h-95z" />
    <glyph glyph-name="yacute.sc" horiz-adv-x="506" 
d="M206 0q-11 0 -11 11v177l-191 341q-3 6 -0.5 9t7.5 3h110q8 0 12 -7l76 -145q11 -22 22.5 -46.5t22.5 -51.5h2q12 28 22.5 52t22.5 46l74 145q3 7 12 7h108q6 0 8 -3t-1 -9l-190 -341v-177q0 -11 -11 -11h-95zM194 594q-15 0 -8 14l58 106q5 8 14 8h82q7 0 8.5 -4
t-2.5 -10l-79 -107q-5 -7 -14 -7h-59z" />
    <glyph glyph-name="ycircumflex.sc" horiz-adv-x="506" 
d="M206 0q-11 0 -11 11v177l-191 341q-3 6 -0.5 9t7.5 3h110q8 0 12 -7l76 -145q11 -22 22.5 -46.5t22.5 -51.5h2q12 28 22.5 52t22.5 46l74 145q3 7 12 7h108q6 0 8 -3t-1 -9l-190 -341v-177q0 -11 -11 -11h-95zM141 596q-13 -5 -13 7v61q0 9 8 13l109 51q8 4 16 0l109 -51
q8 -4 8 -13v-61q0 -12 -13 -7l-112 43z" />
    <glyph glyph-name="ydieresis.sc" horiz-adv-x="506" 
d="M206 0q-11 0 -11 11v177l-191 341q-3 6 -0.5 9t7.5 3h110q8 0 12 -7l76 -145q11 -22 22.5 -46.5t22.5 -51.5h2q12 28 22.5 52t22.5 46l74 145q3 7 12 7h108q6 0 8 -3t-1 -9l-190 -341v-177q0 -11 -11 -11h-95zM160 606q-32 0 -47.5 16.5t-15.5 43.5v14q0 28 15.5 43.5
t47.5 15.5q33 0 48.5 -15.5t15.5 -43.5v-14q0 -27 -15.5 -43.5t-48.5 -16.5zM347 606q-32 0 -47.5 16.5t-15.5 43.5v14q0 28 15.5 43.5t47.5 15.5t47.5 -15.5t15.5 -43.5v-14q0 -27 -15.5 -43.5t-47.5 -16.5z" />
    <glyph glyph-name="ygrave.sc" horiz-adv-x="506" 
d="M206 0q-11 0 -11 11v177l-191 341q-3 6 -0.5 9t7.5 3h110q8 0 12 -7l76 -145q11 -22 22.5 -46.5t22.5 -51.5h2q12 28 22.5 52t22.5 46l74 145q3 7 12 7h108q6 0 8 -3t-1 -9l-190 -341v-177q0 -11 -11 -11h-95zM251 594q-10 0 -14 7l-79 107q-4 6 -2.5 10t8.5 4h81
q10 0 14 -8l58 -106q8 -14 -7 -14h-59z" />
    <glyph glyph-name="z.sc" horiz-adv-x="481" 
d="M16 0q-11 0 -11 10v6q0 8 4 13l225 330q14 21 28 40.5t29 40.5v2q-25 -1 -48.5 -1h-48.5h-151q-11 0 -11 10v79q0 11 11 11h419q11 0 11 -10v-5q0 -8 -4 -14l-221 -320q-15 -23 -31.5 -46t-32.5 -45v-2q27 1 52.5 1h52.5h152q11 0 11 -10v-79q0 -11 -11 -11h-425z" />
    <glyph glyph-name="zacute.sc" horiz-adv-x="481" 
d="M16 0q-11 0 -11 10v6q0 8 4 13l225 330q14 21 28 40.5t29 40.5v2q-25 -1 -48.5 -1h-48.5h-151q-11 0 -11 10v79q0 11 11 11h419q11 0 11 -10v-5q0 -8 -4 -14l-221 -320q-15 -23 -31.5 -46t-32.5 -45v-2q27 1 52.5 1h52.5h152q11 0 11 -10v-79q0 -11 -11 -11h-425z
M178 594q-15 0 -8 14l58 106q5 8 14 8h82q7 0 8.5 -4t-2.5 -10l-79 -107q-5 -7 -14 -7h-59z" />
    <glyph glyph-name="zcaron.sc" horiz-adv-x="481" 
d="M16 0q-11 0 -11 10v6q0 8 4 13l225 330q14 21 28 40.5t29 40.5v2q-25 -1 -48.5 -1h-48.5h-151q-11 0 -11 10v79q0 11 11 11h419q11 0 11 -10v-5q0 -8 -4 -14l-221 -320q-15 -23 -31.5 -46t-32.5 -45v-2q27 1 52.5 1h52.5h152q11 0 11 -10v-79q0 -11 -11 -11h-425z
M230 597l-109 51q-8 4 -8 13v61q0 12 13 7l112 -43l112 43q13 5 13 -7v-61q0 -9 -8 -13l-109 -51q-8 -3 -16 0z" />
    <glyph glyph-name="zdotaccent.sc" horiz-adv-x="481" 
d="M16 0q-11 0 -11 10v6q0 8 4 13l225 330q14 21 28 40.5t29 40.5v2q-25 -1 -48.5 -1h-48.5h-151q-11 0 -11 10v79q0 11 11 11h419q11 0 11 -10v-5q0 -8 -4 -14l-221 -320q-15 -23 -31.5 -46t-32.5 -45v-2q27 1 52.5 1h52.5h152q11 0 11 -10v-79q0 -11 -11 -11h-425z
M238 607q-34 0 -51.5 18t-17.5 46v15q0 29 17.5 46.5t51.5 17.5t51 -17.5t17 -46.5v-15q0 -28 -17 -46t-51 -18z" />
    <glyph glyph-name="ordfeminine" unicode="&#xaa;" horiz-adv-x="401" 
d="M141 313q-40 0 -65.5 24t-25.5 73q0 57 36 81.5t114 31.5l51 5v19q0 25 -10.5 36.5t-39.5 11.5q-50 0 -48 -33q0 -10 -11 -10h-63q-11 0 -12 13q-4 48 33.5 75t103.5 27q72 0 104.5 -30t32.5 -92v-136q0 -24 2 -42.5t3 -34.5q1 -12 -11 -12h-61q-5 0 -7 4l-4 8
q-1 5 -2.5 15.5t-3.5 21.5q-27 -27 -55 -41.5t-61 -14.5zM69 181q-12 0 -12 11v62q0 12 12 12h270q12 0 12 -12v-62q0 -11 -12 -11h-270zM170 383q17 0 38 11t43 32v48l-45 -5q-38 -3 -53 -14.5t-15 -35.5q0 -19 8 -27.5t24 -8.5z" />
    <glyph glyph-name="ordmasculine" unicode="&#xba;" horiz-adv-x="403" 
d="M201 312q-71 0 -111 41t-40 112v49q0 71 40 112t111 41t111.5 -41t40.5 -112v-49q0 -71 -40.5 -112t-111.5 -41zM70 181q-12 0 -12 11v62q0 12 12 12h263q12 0 12 -12v-62q0 -11 -12 -11h-263zM201 396q30 0 46.5 18t16.5 49v54q0 32 -16.5 49.5t-46.5 17.5t-46 -17.5
t-16 -49.5v-54q0 -32 16 -49.5t46 -17.5z" />
    <glyph glyph-name="uni0410" unicode="&#x410;" horiz-adv-x="587" 
d="M9 0q-13 0 -10 13l216 633q3 9 13 9h128q11 0 14 -9l217 -633q4 -13 -9 -13h-106q-10 0 -13 9l-129 411q-10 33 -19.5 65.5t-18.5 65.5h-2q-9 -32 -18.5 -64.5t-19.5 -64.5l-126 -412q-3 -10 -14 -10h-103zM146 137l23 98h243l24 -98h-290z" />
    <glyph glyph-name="uni0411" unicode="&#x411;" horiz-adv-x="581" 
d="M85 0q-11 0 -11 12v631q0 12 11 12h375q11 0 11 -12v-82q0 -12 -11 -12h-266v-140h100q125 0 186.5 -49.5t61.5 -146.5q0 -104 -63 -158.5t-191 -54.5h-203zM194 99h91q69 0 103 27t34 86q0 55 -32.5 79t-101.5 24h-94v-216z" />
    <glyph glyph-name="uni0412" unicode="&#x412;" horiz-adv-x="588" 
d="M85 0q-11 0 -11 12v631q0 12 11 12h199q118 0 177.5 -40t59.5 -122q0 -57 -25.5 -91t-82.5 -54v-3q67 -12 101.5 -51.5t34.5 -106.5q0 -98 -63 -142.5t-202 -44.5h-199zM194 100h93q76 0 109 21.5t33 72.5q0 50 -33.5 73t-107.5 23h-94v-190zM194 381h87q63 0 91.5 22
t28.5 68q0 45 -30 65t-98 20h-79v-175z" />
    <glyph glyph-name="uni0413" unicode="&#x413;" horiz-adv-x="477" 
d="M85 0q-11 0 -11 12v631q0 12 11 12h356q11 0 11 -12v-82q0 -12 -11 -12h-247v-537q0 -12 -12 -12h-97z" />
    <glyph glyph-name="uni0403" unicode="&#x403;" horiz-adv-x="477" 
d="M85 0q-11 0 -11 12v631q0 12 11 12h356q11 0 11 -12v-82q0 -12 -11 -12h-247v-537q0 -12 -12 -12h-97zM210 709q-6 0 -7 3.5t1 7.5l59 109q4 8 13 8h91q6 0 7.5 -4t-1.5 -9l-80 -109q-4 -6 -13 -6h-70z" />
    <glyph glyph-name="uni0490" unicode="&#x490;" horiz-adv-x="477" 
d="M85 0q-11 0 -11 12v631q0 12 11 12h356q11 0 11 -12v-82q0 -12 -11 -12h-247v-537q0 -12 -12 -12h-97zM336 567v217q0 6 3.5 9t8.5 3h93q5 0 8 -3t3 -9v-217h-116z" />
    <glyph glyph-name="uni0414" unicode="&#x414;" horiz-adv-x="630" 
d="M159 25l-125 2l202 619q4 9 14 9h128q10 0 14 -9l203 -619l-127 -2l-107 362l-24 82l-24 82h-1l-24 -84l-24 -84zM12 -136q-5 0 -8.5 3.5t-3.5 8.5v219q0 6 3.5 9t8.5 3h606q6 0 9 -3t3 -9v-219q0 -5 -3 -8.5t-9 -3.5h-94q-5 0 -8.5 3.5t-3.5 8.5v124h-394v-124
q0 -5 -3 -8.5t-9 -3.5h-94z" />
    <glyph glyph-name="uni0415" unicode="&#x415;" horiz-adv-x="540" 
d="M85 0q-11 0 -11 12v631q0 12 11 12h383q11 0 11 -12v-82q0 -12 -11 -12h-274v-167h250q11 0 11 -12v-77q0 -12 -11 -12h-250v-175h274q11 0 11 -12v-82q0 -12 -11 -12h-383z" />
    <glyph glyph-name="uni0400" unicode="&#x400;" horiz-adv-x="540" 
d="M85 0q-11 0 -11 12v631q0 12 11 12h383q11 0 11 -12v-82q0 -12 -11 -12h-274v-167h250q11 0 11 -12v-77q0 -12 -11 -12h-250v-175h274q11 0 11 -12v-82q0 -12 -11 -12h-383zM268 709q-8 0 -13 6l-79 109q-4 5 -2.5 9t7.5 4h92q9 0 13 -8l58 -109q3 -4 1.5 -7.5t-7.5 -3.5
h-70z" />
    <glyph glyph-name="uni0401" unicode="&#x401;" horiz-adv-x="540" 
d="M85 0q-11 0 -11 12v631q0 12 11 12h383q11 0 11 -12v-82q0 -12 -11 -12h-274v-167h250q11 0 11 -12v-77q0 -12 -11 -12h-250v-175h274q11 0 11 -12v-82q0 -12 -11 -12h-383zM184 709q-32 0 -47.5 16.5t-15.5 43.5v14q0 28 15.5 43.5t47.5 15.5q33 0 48.5 -15.5
t15.5 -43.5v-14q0 -27 -15.5 -43.5t-48.5 -16.5zM371 709q-32 0 -47.5 16.5t-15.5 43.5v14q0 28 15.5 43.5t47.5 15.5t47.5 -15.5t15.5 -43.5v-14q0 -27 -15.5 -43.5t-47.5 -16.5z" />
    <glyph glyph-name="uni0416" unicode="&#x416;" horiz-adv-x="882" 
d="M33 0q-6 0 -9 4t1 10l172 325l-157 302q-3 6 -0.5 10t8.5 4h108q4 0 8.5 -1.5t5.5 -6.5l131 -268h82v264q0 12 12 12h93q11 0 11 -12v-264h85l131 268q2 5 5.5 6.5t8.5 1.5h105q6 0 9 -4t-1 -10l-156 -302l172 -325q3 -6 0 -10t-9 -4h-114q-10 0 -14 8l-137 269h-85v-265
q0 -12 -11 -12h-93q-12 0 -12 12v265h-85l-137 -269q-5 -8 -14 -8h-114z" />
    <glyph glyph-name="uni0417" unicode="&#x417;" horiz-adv-x="588" 
d="M275 -12q-117 0 -175 45t-54 135q1 9 4 13t8 4h90q11 0 11 -9q0 -45 27.5 -65.5t90.5 -20.5q76 0 110 24.5t34 77.5q0 47 -31 68.5t-101 21.5h-100q-11 0 -11 12v72q0 12 11 12h78q69 0 99.5 22.5t30.5 72.5q0 49 -28.5 71t-93.5 22q-58 0 -84.5 -19.5t-26.5 -61.5
q0 -13 -11 -13h-90q-5 0 -8.5 4.5t-3.5 13.5q-3 86 55 131.5t176 45.5t176.5 -43.5t58.5 -129.5q0 -56 -28 -96.5t-80 -57.5v-1q66 -13 99 -51.5t33 -98.5q0 -96 -66.5 -148.5t-199.5 -52.5z" />
    <glyph glyph-name="uni0418" unicode="&#x418;" horiz-adv-x="665" 
d="M85 0q-11 0 -11 12v631q0 12 11 12h93q12 0 12 -12v-268q0 -51 -1.5 -89t-3.5 -67.5t-5 -57.5h3q13 27 27 56t35.5 66.5t53.5 91.5l162 272q5 8 14 8h105q11 0 11 -12v-631q0 -12 -11 -12h-93q-12 0 -12 12v256q0 67 2.5 124.5t6.5 99.5h-3q-12 -26 -26.5 -53.5
t-37.5 -67.5t-61 -103l-152 -260q-5 -8 -14 -8h-105z" />
    <glyph glyph-name="uni0419" unicode="&#x419;" horiz-adv-x="665" 
d="M85 0q-11 0 -11 12v631q0 12 11 12h93q12 0 12 -12v-268q0 -51 -1.5 -89t-3.5 -67.5t-5 -57.5h3q13 27 27 56t35.5 66.5t53.5 91.5l162 272q5 8 14 8h105q11 0 11 -12v-631q0 -12 -11 -12h-93q-12 0 -12 12v256q0 67 2.5 124.5t6.5 99.5h-3q-12 -26 -26.5 -53.5
t-37.5 -67.5t-61 -103l-152 -260q-5 -8 -14 -8h-105zM333 711q-46 0 -84.5 17t-53.5 30q-5 4 -5 13v66q0 8 3.5 10t9.5 -2q20 -14 55.5 -30.5t74.5 -16.5q38 0 73.5 16.5t55.5 30.5q6 4 9.5 2t3.5 -10v-66q0 -9 -5 -13q-15 -13 -53 -30t-84 -17z" />
    <glyph glyph-name="uni040D" unicode="&#x40d;" horiz-adv-x="665" 
d="M85 0q-11 0 -11 12v631q0 12 11 12h93q12 0 12 -12v-268q0 -51 -1.5 -89t-3.5 -67.5t-5 -57.5h3q13 27 27 56t35.5 66.5t53.5 91.5l162 272q5 8 14 8h105q11 0 11 -12v-631q0 -12 -11 -12h-93q-12 0 -12 12v256q0 67 2.5 124.5t6.5 99.5h-3q-12 -26 -26.5 -53.5
t-37.5 -67.5t-61 -103l-152 -260q-5 -8 -14 -8h-105zM323 709q-8 0 -13 6l-79 109q-4 5 -2.5 9t7.5 4h92q9 0 13 -8l58 -109q3 -4 1.5 -7.5t-7.5 -3.5h-70z" />
    <glyph glyph-name="uni041A" unicode="&#x41a;" horiz-adv-x="602" 
d="M85 0q-11 0 -11 12v631q0 12 11 12h97q12 0 12 -12v-263h69l187 268q5 7 14 7h109q7 0 9.5 -4t-2.5 -10l-213 -299l234 -328q5 -5 2.5 -9.5t-9.5 -4.5h-118q-9 0 -15 7l-194 269h-73v-264q0 -12 -12 -12h-97z" />
    <glyph glyph-name="uni040C" unicode="&#x40c;" horiz-adv-x="602" 
d="M85 0q-11 0 -11 12v631q0 12 11 12h97q12 0 12 -12v-263h69l187 268q5 7 14 7h109q7 0 9.5 -4t-2.5 -10l-213 -299l234 -328q5 -5 2.5 -9.5t-9.5 -4.5h-118q-9 0 -15 7l-194 269h-73v-264q0 -12 -12 -12h-97zM240 709q-6 0 -7 3.5t1 7.5l59 109q4 8 13 8h91q6 0 7.5 -4
t-1.5 -9l-80 -109q-4 -6 -13 -6h-70z" />
    <glyph glyph-name="uni041B" unicode="&#x41b;" horiz-adv-x="581" 
d="M9 0q-13 0 -10 13l213 633q3 9 13 9h128q11 0 14 -9l214 -633q4 -13 -9 -13h-106q-10 0 -13 9l-127 411q-10 33 -19 65.5t-18 65.5h-2q-9 -32 -17.5 -65t-18.5 -65l-125 -411q-3 -10 -14 -10h-103z" />
    <glyph glyph-name="uni041C" unicode="&#x41c;" horiz-adv-x="785" 
d="M71 0q-11 0 -11 12l13 631q0 12 12 12h129q9 0 13 -9l167 -364l164 364q5 9 14 9h129q11 0 11 -12l14 -631q0 -12 -12 -12h-94q-12 0 -12 12l-8 323q-1 40 1 80.5t3 79.5h-3q-16 -39 -33.5 -78.5t-36.5 -77.5l-123 -259q-4 -8 -14 -8h-4q-9 0 -13 8l-124 262
q-19 37 -36 76.5t-32 76.5h-3q2 -38 3 -78.5t0 -79.5l-8 -325q0 -12 -11 -12h-95z" />
    <glyph glyph-name="uni041D" unicode="&#x41d;" horiz-adv-x="668" 
d="M85 0q-11 0 -11 12v631q0 12 11 12h97q12 0 12 -12v-257h280v257q0 12 12 12h97q11 0 11 -12v-631q0 -12 -11 -12h-97q-12 0 -12 12v270h-280v-270q0 -12 -12 -12h-97z" />
    <glyph glyph-name="uni041E" unicode="&#x41e;" horiz-adv-x="651" 
d="M326 -12q-132 0 -198 63.5t-66 182.5v187q0 120 66 183t198 63q131 0 197 -63t66 -183v-187q0 -119 -66 -182.5t-197 -63.5zM326 93q71 0 107 37.5t36 109.5v175q0 72 -36 109.5t-107 37.5t-107.5 -37.5t-36.5 -109.5v-175q0 -72 36.5 -109.5t107.5 -37.5z" />
    <glyph glyph-name="uni041F" unicode="&#x41f;" horiz-adv-x="666" 
d="M85 0q-11 0 -11 12v631q0 12 11 12h496q11 0 11 -12v-631q0 -12 -11 -12h-97q-12 0 -12 12v537h-278v-537q0 -12 -12 -12h-97z" />
    <glyph glyph-name="uni0420" unicode="&#x420;" horiz-adv-x="559" 
d="M85 0q-11 0 -11 12v631q0 12 11 12h186q130 0 191.5 -54.5t61.5 -159.5q0 -103 -63 -157.5t-189 -54.5h-78v-217q0 -12 -12 -12h-97zM194 331h76q68 0 101 26t33 83q0 60 -33 86t-102 26h-75v-221z" />
    <glyph glyph-name="uni0421" unicode="&#x421;" horiz-adv-x="643" 
d="M324 -12q-127 0 -194.5 62.5t-67.5 184.5v184q0 123 68 185.5t194 62.5q86 0 148 -28t92 -80t20 -123q-1 -5 -3.5 -9.5t-8.5 -4.5h-97q-12 0 -11 12q2 61 -32.5 94.5t-105.5 33.5q-69 0 -106.5 -36t-37.5 -109v-179q0 -73 37.5 -109t106.5 -36q73 0 108 34.5t30 93.5
q-1 12 11 12h96q11 0 13 -14q7 -70 -23.5 -122t-91 -80.5t-145.5 -28.5z" />
    <glyph glyph-name="uni0422" unicode="&#x422;" horiz-adv-x="545" 
d="M224 0q-12 0 -12 12v537h-172q-12 0 -12 12v82q0 12 12 12h465q12 0 12 -12v-82q0 -12 -12 -12h-172v-537q0 -12 -12 -12h-97z" />
    <glyph glyph-name="uni0423" unicode="&#x423;" horiz-adv-x="573" 
d="M134 0q-6 0 -9 4t0 10l105 212l-212 415q-3 6 -0.5 10t8.5 4h109q10 0 14 -8l97 -202q12 -26 23 -51t21 -53h3q11 28 22 53.5t24 50.5l98 202q4 8 14 8h106q6 0 8.5 -4t-0.5 -10l-320 -633q-4 -8 -13 -8h-98z" />
    <glyph glyph-name="uni040E" unicode="&#x40e;" horiz-adv-x="573" 
d="M134 0q-6 0 -9 4t0 10l105 212l-212 415q-3 6 -0.5 10t8.5 4h109q10 0 14 -8l97 -202q12 -26 23 -51t21 -53h3q11 28 22 53.5t24 50.5l98 202q4 8 14 8h106q6 0 8.5 -4t-0.5 -10l-320 -633q-4 -8 -13 -8h-98zM292 711q-46 0 -84.5 17t-53.5 30q-5 4 -5 13v66q0 8 3.5 10
t9.5 -2q20 -14 55.5 -30.5t74.5 -16.5q38 0 73.5 16.5t55.5 30.5q6 4 9.5 2t3.5 -10v-66q0 -9 -5 -13q-15 -13 -53 -30t-84 -17z" />
    <glyph glyph-name="uni0424" unicode="&#x424;" horiz-adv-x="842" 
d="M379 -12q-99 0 -170 27.5t-109 85t-38 144.5v164q0 88 38.5 145.5t110 84.5t170.5 27h80q99 0 171 -27t110.5 -84.5t38.5 -145.5v-164q0 -87 -38.5 -144.5t-109.5 -85t-169 -27.5h-85zM377 91h89q64 0 108 17t66.5 53t22.5 94v144q0 58 -22 94.5t-66.5 53.5t-108.5 17
h-89q-65 0 -108.5 -17t-66.5 -53.5t-23 -94.5v-144q0 -58 23 -94t67 -53t108 -17zM373 -74q-12 0 -12 12v97l3 29v527l-3 29v97q0 12 12 12h96q12 0 12 -12v-97l-3 -28v-529l3 -28v-97q0 -12 -12 -12h-96z" />
    <glyph glyph-name="uni0425" unicode="&#x425;" horiz-adv-x="577" 
d="M13 0q-7 0 -9 4t2 10l211 323l-198 304q-3 6 -1.5 10t8.5 4h116q8 0 13 -7l92 -146q11 -18 22.5 -38t21.5 -39h1q11 20 23 41.5t24 39.5l88 142q5 7 14 7h112q7 0 8.5 -4t-1.5 -10l-197 -305l208 -322q4 -6 2 -10t-9 -4h-116q-9 0 -14 7l-97 155q-12 18 -24.5 40.5
t-23.5 43.5h-2q-11 -20 -23.5 -42t-24.5 -40l-98 -156q-5 -8 -14 -8h-114z" />
    <glyph glyph-name="uni0427" unicode="&#x427;" horiz-adv-x="637" 
d="M248 201q-90 0 -137 45t-47 148v249q0 12 11 12h97q12 0 12 -12v-230q0 -60 24 -83t75 -23q45 0 91 18t84 50v-103q-28 -20 -63 -36t-72 -25.5t-75 -9.5zM455 0q-11 0 -11 12v631q0 12 11 12h97q12 0 12 -12v-631q0 -12 -12 -12h-97z" />
    <glyph glyph-name="uni0426" unicode="&#x426;" horiz-adv-x="672" 
d="M546 -136q-5 0 -8.5 3.5t-3.5 8.5v124h-449q-11 0 -11 12v631q0 12 11 12h97q12 0 12 -12v-536h268v536q0 12 12 12h96q12 0 12 -12v-536h58q6 0 9 -3t3 -9v-219q0 -5 -3 -8.5t-9 -3.5h-94z" />
    <glyph glyph-name="uni0428" unicode="&#x428;" horiz-adv-x="900" 
d="M85 0q-11 0 -11 12v631q0 12 11 12h97q12 0 12 -12v-536h197v536q0 12 12 12h95q12 0 12 -12v-536h196v536q0 12 12 12h97q12 0 12 -12v-631q0 -12 -12 -12h-730z" />
    <glyph glyph-name="uni0429" unicode="&#x429;" horiz-adv-x="915" 
d="M789 -136q-5 0 -8.5 3.5t-3.5 8.5v124h-692q-11 0 -11 12v631q0 12 11 12h97q12 0 12 -12v-536h197v536q0 12 12 12h95q12 0 12 -12v-536h196v536q0 12 12 12h97q12 0 12 -12v-536h57q5 0 8 -3t3 -9v-219q0 -5 -3 -8.5t-8 -3.5h-95z" />
    <glyph glyph-name="uni040F" unicode="&#x40f;" horiz-adv-x="666" 
d="M286 -136q-5 0 -8.5 3.5t-3.5 8.5v124h-189q-11 0 -11 12v631q0 12 11 12h97q12 0 12 -12v-536h278v536q0 12 12 12h97q11 0 11 -12v-631q0 -5 -3 -8.5t-8 -3.5h-189v-124q0 -5 -3 -8.5t-8 -3.5h-95z" />
    <glyph glyph-name="uni042C" unicode="&#x42c;" horiz-adv-x="574" 
d="M85 0q-11 0 -11 12v631q0 12 11 12h97q12 0 12 -12v-217h95q127 0 188.5 -52t61.5 -154q0 -107 -63 -163.5t-191 -56.5h-200zM194 103h89q68 0 102 28.5t34 88.5q0 58 -32.5 82.5t-102.5 24.5h-90v-224z" />
    <glyph glyph-name="uni042A" unicode="&#x42a;" horiz-adv-x="670" 
d="M181 0q-11 0 -11 12v537h-130q-12 0 -12 12v82q0 12 12 12h238q12 0 12 -12v-217h96q126 0 187.5 -52t61.5 -154q0 -107 -62.5 -163.5t-191.5 -56.5h-200zM290 103h89q68 0 102 28.5t34 88.5q0 58 -32.5 82.5t-102.5 24.5h-90v-224z" />
    <glyph glyph-name="uni042B" unicode="&#x42b;" horiz-adv-x="841" 
d="M85 0q-11 0 -11 12v631q0 12 11 12h97q12 0 12 -12v-217h95q127 0 188.5 -52t61.5 -154q0 -107 -63 -163.5t-191 -56.5h-200zM194 103h89q68 0 102 28.5t34 88.5q0 58 -32.5 82.5t-102.5 24.5h-90v-224zM659 0q-11 0 -11 12v631q0 12 11 12h97q12 0 12 -12v-631
q0 -12 -12 -12h-97z" />
    <glyph glyph-name="uni0409" unicode="&#x409;" horiz-adv-x="891" 
d="M9 0q-13 0 -10 13l213 633q3 9 13 9h128q11 0 14 -9l75 -220h162q128 0 189.5 -52t61.5 -154q0 -107 -62.5 -163.5t-191.5 -56.5h-135q-10 0 -13 9l-127 411q-10 33 -19 65.5t-18 65.5h-2q-9 -32 -17.5 -65t-18.5 -65l-125 -411q-3 -10 -14 -10h-103zM551 103h48
q69 0 102.5 28.5t33.5 88.5q0 58 -32 82.5t-102 24.5h-126z" />
    <glyph glyph-name="uni040A" unicode="&#x40a;" horiz-adv-x="975" 
d="M85 0q-11 0 -11 12v631q0 12 11 12h97q12 0 12 -12v-232h280v232q0 12 12 12h96q12 0 12 -12v-232h98q122 0 185 -52t63 -147q0 -102 -63.5 -157t-187.5 -55h-203q-12 0 -12 12v298h-280v-298q0 -12 -12 -12h-97zM594 103h93q65 0 98.5 27t33.5 81q0 52 -32.5 75.5
t-97.5 23.5h-95v-207z" />
    <glyph glyph-name="uni0405" unicode="&#x405;" horiz-adv-x="572" 
d="M279 -12q-127 0 -185 51.5t-51 143.5q2 17 14 17h94q13 0 12 -15q0 -49 30 -71.5t92 -22.5q61 0 90.5 19.5t29.5 60.5q0 19 -7 33.5t-24 26t-46 23.5l-145 62q-48 21 -77 45.5t-41 56.5t-12 73q1 85 57 130t167 45q78 0 132.5 -21.5t81.5 -63t21 -103.5q-2 -18 -12 -18
h-95q-6 0 -9 4t-2 14q3 40 -28.5 63.5t-89.5 23.5q-51 0 -77 -18t-26 -54q0 -19 7 -33.5t24.5 -26.5t47.5 -25l143 -61q49 -20 77.5 -44.5t41 -56.5t11.5 -76q0 -87 -59 -134.5t-187 -47.5z" />
    <glyph glyph-name="uni0404" unicode="&#x404;" horiz-adv-x="620" 
d="M321 -12q-132 0 -195.5 54t-63.5 171v228q0 118 61 172t183 54q86 0 144.5 -22t86.5 -63.5t20 -99.5q-3 -19 -12 -19h-97q-11 0 -11 19q0 27 -13.5 45t-41 26.5t-71.5 8.5q-69 0 -99 -23.5t-30 -77.5v-79h223q11 0 11 -11v-79q0 -12 -11 -12h-223v-82q0 -56 31 -80.5
t103 -24.5q46 0 74 9.5t40.5 28t12.5 42.5q0 19 10 19h97q6 0 9 -5t3 -19q3 -57 -23.5 -97.5t-80.5 -61.5t-137 -21z" />
    <glyph glyph-name="uni042D" unicode="&#x42d;" horiz-adv-x="618" 
d="M294 -12q-82 0 -136 21t-79.5 61.5t-22.5 97.5q0 14 3 19t8 5h97q11 0 11 -19q0 -24 12.5 -42.5t40.5 -28t73 -9.5q74 0 104.5 25t30.5 87v75h-223q-12 0 -12 12v79q0 11 12 11h223v72q0 60 -29.5 84t-99.5 24q-42 0 -70 -8.5t-42 -26.5t-14 -45q0 -19 -11 -19h-97
q-10 0 -12 18q-3 58 25 99.5t85.5 64t142.5 22.5q122 0 182 -54t60 -172v-228q0 -117 -65 -171t-197 -54z" />
    <glyph glyph-name="uni0406" unicode="&#x406;" horiz-adv-x="267" 
d="M85 0q-11 0 -11 12v631q0 12 11 12h97q12 0 12 -12v-631q0 -12 -12 -12h-97z" />
    <glyph glyph-name="uni0407" unicode="&#x407;" horiz-adv-x="267" 
d="M85 0q-11 0 -11 12v631q0 12 11 12h97q12 0 12 -12v-631q0 -12 -12 -12h-97zM41 709q-32 0 -47.5 16.5t-15.5 43.5v14q0 28 15.5 43.5t47.5 15.5q33 0 48.5 -15.5t15.5 -43.5v-14q0 -27 -15.5 -43.5t-48.5 -16.5zM228 709q-32 0 -47.5 16.5t-15.5 43.5v14q0 28 15.5 43.5
t47.5 15.5t47.5 -15.5t15.5 -43.5v-14q0 -27 -15.5 -43.5t-47.5 -16.5z" />
    <glyph glyph-name="uni0408" unicode="&#x408;" horiz-adv-x="277" 
d="M37 -151q-19 -4 -23 6l-24 82q-4 12 15 17q39 9 59 43.5t20 94.5v551q0 12 11 12h97q12 0 12 -12v-543q0 -112 -42 -174t-125 -77z" />
    <glyph glyph-name="uni040B" unicode="&#x40b;" horiz-adv-x="740" 
d="M224 0q-12 0 -12 12v537h-172q-12 0 -12 12v82q0 12 12 12h482q11 0 11 -12v-82q0 -12 -11 -12h-189v-188q39 35 85.5 55t99.5 20q78 0 118.5 -43.5t40.5 -128.5v-252q0 -12 -12 -12h-96q-12 0 -12 12v228q0 46 -20 69t-61 23q-37 0 -71.5 -18t-71.5 -53v-249
q0 -12 -12 -12h-97z" />
    <glyph glyph-name="uni042E" unicode="&#x42e;" horiz-adv-x="883" 
d="M570 -12q-123 0 -187.5 64t-64.5 182v187q0 119 64.5 182.5t187.5 63.5q122 0 187 -63.5t65 -182.5v-187q0 -118 -65 -182t-187 -64zM85 0q-11 0 -11 12v631q0 12 11 12h97q12 0 12 -12v-257h170v-103h-170v-271q0 -12 -12 -12h-97zM570 93q66 0 99 37t33 106v183
q0 69 -33 106t-99 37t-99 -37t-33 -106v-183q0 -69 33 -106t99 -37z" />
    <glyph glyph-name="uni042F" unicode="&#x42f;" horiz-adv-x="611" 
d="M34 0q-7 0 -9 4t1 10l103 173q13 24 27.5 47t29.5 44v2q-59 19 -89.5 64t-30.5 110q0 66 26 110.5t80.5 67.5t138.5 23h215q12 0 12 -12v-631q0 -12 -12 -12h-97q-11 0 -11 12v249h-117l-143 -253q-5 -8 -14 -8h-110zM317 356h101v197h-106q-67 0 -96 -25t-29 -79
q0 -34 13 -54.5t41.5 -29.5t75.5 -9z" />
    <glyph glyph-name="uni0402" unicode="&#x402;" horiz-adv-x="740" 
d="M495 -11q-10 -1 -14 0t-6 7l-25 81q-1 6 1 10.5t13 5.5q46 8 69.5 34t23.5 72v45q0 44 -19.5 66t-59.5 22q-37 0 -72.5 -18t-72.5 -53v-249q0 -12 -12 -12h-97q-12 0 -12 12v537h-172q-12 0 -12 12v82q0 12 12 12h478q12 0 12 -12v-82q0 -12 -12 -12h-185v-188
q39 35 87 55t100 20q76 0 116.5 -43.5t40.5 -128.5v-63q0 -92 -47 -147t-135 -65z" />
    <glyph glyph-name="uni04C0" unicode="&#x4c0;" horiz-adv-x="267" 
d="M85 0q-11 0 -11 12v631q0 12 11 12h97q12 0 12 -12v-631q0 -12 -12 -12h-97z" />
    <glyph glyph-name="uni04E2" unicode="&#x4e2;" horiz-adv-x="665" 
d="M85 0q-11 0 -11 12v631q0 12 11 12h93q12 0 12 -12v-268q0 -51 -1.5 -89t-3.5 -67.5t-5 -57.5h3q13 27 27 56t35.5 66.5t53.5 91.5l162 272q5 8 14 8h105q11 0 11 -12v-631q0 -12 -11 -12h-93q-12 0 -12 12v256q0 67 2.5 124.5t6.5 99.5h-3q-12 -26 -26.5 -53.5
t-37.5 -67.5t-61 -103l-152 -260q-5 -8 -14 -8h-105zM217 716q-12 0 -12 12v66q0 12 12 12h229q12 0 12 -12v-66q0 -12 -12 -12h-229z" />
    <glyph glyph-name="uni04EE" unicode="&#x4ee;" horiz-adv-x="573" 
d="M134 0q-6 0 -9 4t0 10l105 212l-212 415q-3 6 -0.5 10t8.5 4h109q10 0 14 -8l97 -202q12 -26 23 -51t21 -53h3q11 28 22 53.5t24 50.5l98 202q4 8 14 8h106q6 0 8.5 -4t-0.5 -10l-320 -633q-4 -8 -13 -8h-98zM176 716q-12 0 -12 12v66q0 12 12 12h229q12 0 12 -12v-66
q0 -12 -12 -12h-229z" />
    <glyph glyph-name="uni0414.loclRUS" horiz-adv-x="650" 
d="M82 25l-35 67q23 3 35.5 30t16.5 83l26 438q1 12 12 12h412q11 -1 11 -12v-631q0 -12 -11 -12h-97q-12 0 -12 12v542h-202l-20 -341q-4 -66 -21.5 -105.5t-46.5 -58.5t-68 -24zM28 -136q-5 0 -8.5 3.5t-3.5 8.5v219q0 6 3.5 9t8.5 3h590q5 0 8.5 -3t3.5 -9v-219
q0 -5 -3.5 -8.5t-8.5 -3.5h-94q-5 0 -8.5 3.5t-3.5 8.5v124h-378v-124q0 -5 -3.5 -8.5t-8.5 -3.5h-94z" />
    <glyph glyph-name="uni041B.loclRUS" horiz-adv-x="642" 
d="M67 -12q-12 0 -24.5 1.5t-22.5 3.5t-10 13v76q0 14 12 12q5 -1 12.5 -2t17.5 -1q24 0 39.5 24.5t19.5 85.5l26 442q1 12 11 12h410q11 -1 11 -12v-631q0 -12 -12 -12h-97q-11 0 -11 12v542h-199l-22 -363q-7 -105 -43.5 -154t-117.5 -49z" />
    <glyph glyph-name="uni0424.loclRUS" horiz-adv-x="831" 
d="M333 29q-129 0 -200 62t-71 184v109q0 122 71 184t200 62h165q130 0 200.5 -62t70.5 -184v-109q0 -122 -70.5 -184t-200.5 -62h-165zM337 130h157q80 0 119 37.5t39 110.5v103q0 74 -39 111t-119 37h-157q-79 0 -118.5 -37t-39.5 -111v-103q0 -73 39.5 -110.5
t118.5 -37.5zM367 -35q-12 0 -12 12v84l4 23v487l-4 29v82q0 12 12 12h97q12 0 12 -12v-83l-4 -30v-484l4 -24v-84q0 -12 -12 -12h-97z" />
    <glyph glyph-name="uni0409.loclRUS" horiz-adv-x="949" 
d="M70 -12q-13 0 -26.5 1.5l-22.5 2.5q-11 3 -11 14v76q0 12 15 11q4 0 11 -1t14 -1q28 0 42.5 28t18.5 82l26 442q1 12 11 12h410q11 0 11 -12v-232h98q122 0 184.5 -52t62.5 -147q0 -102 -63 -157t-187 -55h-204q-11 0 -11 12v542h-199l-22 -363q-5 -73 -23.5 -117.5
t-51.5 -65t-83 -20.5zM569 103h93q64 0 98 27t34 81q0 52 -33 75.5t-97 23.5h-95v-207z" />
    <glyph glyph-name="uni0430" unicode="&#x430;" horiz-adv-x="504" 
d="M353 0q-6 0 -8.5 3.5t-4.5 9.5q-2 10 -5 34.5t-5 45.5l-7 41v200q0 42 -17 59.5t-59 17.5q-76 0 -74 -55q0 -12 -11 -12h-90q-12 0 -13 18q-6 67 45.5 104.5t147.5 37.5q98 0 143.5 -42t45.5 -130v-208q0 -32 1.5 -60t4.5 -51q2 -13 -11 -13h-83zM162 -12q-60 0 -92 36
t-32 103q0 52 20 84.5t65.5 51t121.5 24.5l93 8v-72l-83 -7q-58 -5 -80 -22t-22 -55q0 -29 12 -43.5t37 -14.5q30 0 61 19.5t78 69.5l4 -80q-30 -33 -59 -56t-59 -34.5t-65 -11.5z" />
    <glyph glyph-name="uni0431" unicode="&#x431;" horiz-adv-x="548" 
d="M276 -12q-106 0 -160 51t-54 151v218q0 90 27 140t77 77q28 16 60 25t65 16t63.5 16.5t54.5 25.5q11 7 15 -6l23 -79q3 -10 -4 -15q-25 -19 -60 -27t-72.5 -14.5t-68.5 -20.5q-35 -16 -49 -45.5t-14 -72.5v-227q0 -57 23 -84t75 -27q53 0 76 28.5t23 80.5v74
q0 47 -19.5 67.5t-56.5 20.5t-72.5 -22t-59.5 -57l1 97q19 24 45 43t57.5 30t67.5 11q71 0 113 -43t42 -131v-99q0 -98 -56 -150t-162 -52z" />
    <glyph glyph-name="uni0432" unicode="&#x432;" horiz-adv-x="544" 
d="M269 -12q-103 0 -155.5 50t-52.5 150v312q0 62 22 105.5t68 66.5t117 23q95 0 142.5 -38t47.5 -112q0 -56 -22.5 -94.5t-57.5 -55.5v-2q58 -9 85 -47.5t27 -100.5v-47q0 -102 -57 -156t-164 -54zM273 89q51 0 75.5 28.5t24.5 82.5v47q0 43 -19.5 62.5t-61.5 19.5
q-14 0 -32.5 -2.5t-39 -7t-42.5 -10.5v-111q0 -56 22 -82.5t73 -26.5zM178 391l63 13q47 10 74 36t27 77q0 42 -19 61t-59 19q-42 0 -64 -22t-22 -67v-117z" />
    <glyph glyph-name="uni0433" unicode="&#x433;" horiz-adv-x="484" 
d="M234 -12q-96 0 -143.5 29.5t-48.5 101.5q0 55 24.5 89.5t78.5 55.5l113 44q33 13 45 26t12 35q0 23 -17 33t-56 10q-40 0 -60 -12t-20 -36q0 -15 -11 -15h-88q-11 0 -13 15q-6 63 43.5 101.5t150.5 38.5q93 0 141 -33t48 -99q0 -53 -24.5 -84.5t-78.5 -52.5l-114 -44
q-32 -13 -44 -28t-12 -40q1 -27 20.5 -36t60.5 -8q45 1 66.5 14.5t21.5 42.5q0 15 10 15h89q5 0 8 -2.5t4 -11.5q6 -71 -41.5 -110t-164.5 -39z" />
    <glyph glyph-name="uni0453" unicode="&#x453;" horiz-adv-x="484" 
d="M234 -12q-96 0 -143.5 29.5t-48.5 101.5q0 55 24.5 89.5t78.5 55.5l113 44q33 13 45 26t12 35q0 23 -17 33t-56 10q-40 0 -60 -12t-20 -36q0 -15 -11 -15h-88q-11 0 -13 15q-6 63 43.5 101.5t150.5 38.5q93 0 141 -33t48 -99q0 -53 -24.5 -84.5t-78.5 -52.5l-114 -44
q-32 -13 -44 -28t-12 -40q1 -27 20.5 -36t60.5 -8q45 1 66.5 14.5t21.5 42.5q0 15 10 15h89q5 0 8 -2.5t4 -11.5q6 -71 -41.5 -110t-164.5 -39zM177 557q-13 0 -7 12l68 125q5 9 15 9h90q6 0 7.5 -4.5t-2.5 -8.5l-90 -126q-4 -7 -13 -7h-68z" />
    <glyph glyph-name="uni0491" unicode="&#x491;" horiz-adv-x="449" 
d="M98 -12q-23 0 -41 2.5t-40 10.5q-9 4 -9 12l2 73q0 5 3.5 7.5t10.5 0.5q13 -6 25.5 -8.5t23.5 -2.5q16 0 24.5 12t11.5 53l10 160q6 93 40.5 140.5t116.5 47.5q35 0 51.5 10t21.5 26q3 10 3 20.5v18.5q0 9 12 9h83q11 0 11 -15q0 -42 -5 -70t-19 -45q-15 -19 -39 -30.5
t-75 -13.5q-43 -1 -61 -27t-23 -89l-11 -144q-6 -85 -36.5 -121.5t-90.5 -36.5z" />
    <glyph glyph-name="uni0434" unicode="&#x434;" horiz-adv-x="543" 
d="M264 -197q-98 0 -149.5 35.5t-45.5 99.5q1 17 13 17h90q11 0 11 -14q0 -22 22 -34t60 -12q54 0 75 23t21 71v31q0 15 0.5 30.5t1.5 30.5h-2q-40 -35 -79 -50.5t-83 -15.5q-74 0 -111 43t-37 133v110q0 103 51 153t159 50q41 0 75.5 -4.5t69 -10.5t73.5 -9v-478
q0 -68 -25 -112t-73 -65.5t-117 -21.5zM240 116q28 0 56 13.5t65 44.5v222q-21 4 -46 6.5t-46 2.5q-52 0 -76 -27.5t-24 -86.5v-80q0 -50 17 -72.5t54 -22.5z" />
    <glyph glyph-name="uni0435" unicode="&#x435;" horiz-adv-x="530" 
d="M267 -12q-108 0 -162 47.5t-54 141.5v124q0 100 53.5 151.5t161.5 51.5q106 0 160 -50t54 -146v-78q0 -12 -12 -12h-300v-30q0 -55 23.5 -80.5t76.5 -25.5q41 0 63.5 13t22.5 39q0 12 12 12h92q11 0 12 -11q3 -72 -49.5 -109.5t-153.5 -37.5zM168 298h196v5q0 55 -24 81
t-73 26q-51 0 -75 -26.5t-24 -81.5v-4z" />
    <glyph glyph-name="uni0450" unicode="&#x450;" horiz-adv-x="530" 
d="M267 -12q-108 0 -162 47.5t-54 141.5v124q0 100 53.5 151.5t161.5 51.5q106 0 160 -50t54 -146v-78q0 -12 -12 -12h-300v-30q0 -55 23.5 -80.5t76.5 -25.5q41 0 63.5 13t22.5 39q0 12 12 12h92q11 0 12 -11q3 -72 -49.5 -109.5t-153.5 -37.5zM168 298h196v5q0 55 -24 81
t-73 26q-51 0 -75 -26.5t-24 -81.5v-4zM258 565q-8 0 -13 7l-90 126q-3 4 -1.5 8.5t7.5 4.5h90q10 0 14 -9l68 -125q6 -12 -6 -12h-69z" />
    <glyph glyph-name="uni0451" unicode="&#x451;" horiz-adv-x="530" 
d="M267 -12q-108 0 -162 47.5t-54 141.5v124q0 100 53.5 151.5t161.5 51.5q106 0 160 -50t54 -146v-78q0 -12 -12 -12h-300v-30q0 -55 23.5 -80.5t76.5 -25.5q41 0 63.5 13t22.5 39q0 12 12 12h92q11 0 12 -11q3 -72 -49.5 -109.5t-153.5 -37.5zM168 298h196v5q0 55 -24 81
t-73 26q-51 0 -75 -26.5t-24 -81.5v-4zM169 572q-32 0 -47.5 16.5t-15.5 42.5v14q0 28 15.5 44t47.5 16q33 0 48.5 -16t15.5 -44v-14q0 -26 -15.5 -42.5t-48.5 -16.5zM357 572q-32 0 -48 16.5t-16 42.5v14q0 28 16 44t48 16t47.5 -16t15.5 -44v-14q0 -26 -15.5 -42.5
t-47.5 -16.5z" />
    <glyph glyph-name="uni0436" unicode="&#x436;" horiz-adv-x="745" 
d="M23 0q-7 0 -9 4.5t2 9.5l144 254l-129 210q-3 6 -1.5 10t8.5 4h107q10 0 14 -7l100 -179h55v365q0 12 12 12h93q12 0 12 -12v-365h55l101 179q4 7 14 7h105q8 0 9.5 -4t-2.5 -10l-128 -210l144 -254q3 -5 1 -9.5t-9 -4.5h-109q-9 0 -14 7l-111 206h-56v-201
q0 -12 -12 -12h-93q-12 0 -12 12v201h-58l-112 -206q-4 -7 -14 -7h-107z" />
    <glyph glyph-name="uni0437" unicode="&#x437;" horiz-adv-x="485" 
d="M225 -197q-66 0 -111.5 18t-67 53t-15.5 86q2 9 5.5 13t8.5 4h89q12 0 11 -16q-1 -31 19.5 -48.5t59.5 -17.5q50 0 74.5 24t24.5 71v48q0 42 -26 62.5t-83 20.5h-82q-5 0 -8.5 3.5t-3.5 8.5v73q0 5 3.5 8t8.5 3h73q50 0 76 24.5t26 68.5v24q0 40 -20 59.5t-63 19.5
q-37 0 -55.5 -14t-17.5 -40q0 -7 -3 -11t-8 -4h-90q-12 0 -14 17q-4 46 19 78t69 48.5t109 16.5q94 0 142 -38.5t48 -117.5v-32q0 -45 -23 -82t-66 -56v-1q54 -12 80 -48t26 -86v-44q0 -62 -23.5 -105.5t-71 -67t-120.5 -23.5z" />
    <glyph glyph-name="uni0438" unicode="&#x438;" horiz-adv-x="546" 
d="M198 -12q-66 0 -100 41.5t-34 123.5v327q0 12 11 12h95q12 0 12 -12v-308q0 -42 14.5 -62t45.5 -20q33 0 66.5 21.5t75.5 64.5l4 -88q-29 -29 -58.5 -51.5t-62 -35.5t-69.5 -13zM396 0q-12 0 -14 11q-3 18 -5.5 38t-3.5 40l-9 51v340q0 12 12 12h95q11 0 11 -12v-355
q0 -29 1.5 -57.5t5.5 -55.5q2 -12 -12 -12h-81z" />
    <glyph glyph-name="uni0439" unicode="&#x439;" horiz-adv-x="546" 
d="M198 -12q-66 0 -100 41.5t-34 123.5v327q0 12 11 12h95q12 0 12 -12v-308q0 -42 14.5 -62t45.5 -20q33 0 66.5 21.5t75.5 64.5l4 -88q-29 -29 -58.5 -51.5t-62 -35.5t-69.5 -13zM396 0q-12 0 -14 11q-3 18 -5.5 38t-3.5 40l-9 51v340q0 12 12 12h95q11 0 11 -12v-355
q0 -29 1.5 -57.5t5.5 -55.5q2 -12 -12 -12h-81zM273 556q-34 0 -59 9.5t-42 21.5t-26 21q-4 4 -4 13v66q0 7 3.5 9.5t9.5 -3.5q17 -15 47.5 -32.5t70.5 -17.5t70.5 17.5t46.5 32.5q6 6 9.5 3.5t3.5 -9.5v-66q0 -5 -1 -8.5t-4 -6.5q-9 -8 -25.5 -20t-41.5 -21t-58 -9z" />
    <glyph glyph-name="uni045D" unicode="&#x45d;" horiz-adv-x="546" 
d="M198 -12q-66 0 -100 41.5t-34 123.5v327q0 12 11 12h95q12 0 12 -12v-308q0 -42 14.5 -62t45.5 -20q33 0 66.5 21.5t75.5 64.5l4 -88q-29 -29 -58.5 -51.5t-62 -35.5t-69.5 -13zM396 0q-12 0 -14 11q-3 18 -5.5 38t-3.5 40l-9 51v340q0 12 12 12h95q11 0 11 -12v-355
q0 -29 1.5 -57.5t5.5 -55.5q2 -12 -12 -12h-81zM268 557q-8 0 -13 7l-90 126q-3 4 -1.5 8.5t7.5 4.5h90q10 0 14 -9l68 -125q6 -12 -6 -12h-69z" />
    <glyph glyph-name="uni043A" unicode="&#x43a;" horiz-adv-x="512" 
d="M507 14q4 -5 2 -9.5t-9 -4.5h-113q-9 0 -14 7l-133 205h-58v-200q0 -12 -12 -12h-95q-11 0 -11 12v659q0 12 11 12h95q12 0 12 -12v-363h58l122 177q5 7 14 7h109q7 0 9 -4t-2 -10l-151 -210z" />
    <glyph glyph-name="uni045C" unicode="&#x45c;" horiz-adv-x="512" 
d="M507 14q4 -5 2 -9.5t-9 -4.5h-113q-9 0 -14 7l-133 205h-58v-200q0 -12 -12 -12h-95q-11 0 -11 12v659q0 12 11 12h95q12 0 12 -12v-363h58l122 177q5 7 14 7h109q7 0 9 -4t-2 -10l-151 -210zM236 557q-13 0 -7 12l68 125q5 9 15 9h90q6 0 7.5 -4.5t-2.5 -8.5l-90 -126
q-4 -7 -13 -7h-68z" />
    <glyph glyph-name="uni043B" unicode="&#x43b;" horiz-adv-x="480" 
d="M13 0q-14 0 -9 14l167 465q5 13 17 13h103q13 0 17 -13l167 -465q5 -14 -8 -14h-103q-10 0 -13 10l-76 240q-9 31 -18 59t-17 58h-2q-7 -30 -15.5 -58.5t-18.5 -59.5l-77 -239q-3 -10 -13 -10h-101z" />
    <glyph glyph-name="uni043C" unicode="&#x43c;" horiz-adv-x="638" 
d="M68 0q-12 0 -12 12l9 468q0 12 11 12h97q9 0 13 -9l133 -263l133 263q4 9 13 9h97q12 0 12 -12l8 -468q0 -12 -12 -12h-87q-11 0 -11 12l-2 192q0 15 1 36t2.5 43t2.5 40h-3q-11 -25 -23 -50t-24 -44l-95 -170q-4 -6 -12 -6q-3 0 -6 1.5t-6 4.5l-95 170q-11 19 -23 44
l-24 50h-3q2 -18 3 -40t2 -43t1 -36l-2 -192q0 -12 -11 -12h-87z" />
    <glyph glyph-name="uni043D" unicode="&#x43d;" horiz-adv-x="547" 
d="M377 0q-11 0 -11 12v468q0 12 11 12h95q12 0 12 -12v-468q0 -12 -12 -12h-95zM75 0q-11 0 -11 12v468q0 12 11 12h95q12 0 12 -12v-468q0 -12 -12 -12h-95zM168 199v99h220v-99h-220z" />
    <glyph glyph-name="uni043E" unicode="&#x43e;" horiz-adv-x="544" 
d="M272 -12q-106 0 -163.5 50.5t-57.5 153.5v108q0 102 57 153t164 51q106 0 163 -51t57 -153v-108q0 -103 -56.5 -153.5t-163.5 -50.5zM272 89q54 0 78 27.5t24 86.5v86q0 59 -24 86.5t-78 27.5t-78.5 -27.5t-24.5 -86.5v-86q0 -59 24.5 -86.5t78.5 -27.5z" />
    <glyph glyph-name="uni043F" unicode="&#x43f;" horiz-adv-x="558" 
d="M389 0q-12 0 -12 12v308q0 42 -17 62t-52 20t-68.5 -20.5t-76.5 -63.5l-4 87q29 31 58.5 53t61.5 34t70 12q72 0 109 -40.5t37 -124.5v-327q0 -12 -12 -12h-94zM75 0q-11 0 -11 12v355q0 28 -2.5 59t-4.5 52q-2 14 12 14h84q10 0 13 -11q2 -8 4 -23.5t4 -32.5t2 -30
l6 -40v-343q0 -12 -12 -12h-95z" />
    <glyph glyph-name="uni0440" unicode="&#x440;" horiz-adv-x="540" 
d="M310 -12q-35 0 -75.5 9.5t-67.5 25.5l-2 94q26 -15 56 -22.5t56 -7.5q48 0 70 29t22 85v106q0 49 -17 72t-53 23q-31 0 -63 -19t-76 -59l-5 88q29 28 58 48.5t60 32t67 11.5q73 0 110 -43.5t37 -133.5v-137q0 -102 -45.5 -152t-131.5 -50zM75 -185q-11 0 -11 12v546
q0 26 -2 54t-5 52q-1 13 12 13h84q11 0 13 -11q2 -8 4 -20.5t3 -25.5t1 -21l8 -56v-531q0 -12 -12 -12h-95z" />
    <glyph glyph-name="uni0441" unicode="&#x441;" horiz-adv-x="526" 
d="M270 -12q-106 0 -162.5 52t-56.5 150v113q0 97 57 149t163 52q67 0 113 -21.5t70 -58t22 -83.5q-1 -21 -12 -21h-90q-11 0 -11 16q0 32 -24.5 49.5t-66.5 17.5q-52 0 -77.5 -26.5t-25.5 -85.5v-90q0 -58 25.5 -84.5t76.5 -26.5q44 0 67.5 18.5t23.5 47.5q0 15 11 15h90
q11 0 12 -11q2 -78 -50 -125t-155 -47z" />
    <glyph glyph-name="uni0442" unicode="&#x442;" horiz-adv-x="840" 
d="M75 0q-11 0 -11 12v355q0 29 -1.5 58t-5.5 54q-2 13 12 13h84q10 0 12 -9q2 -14 5 -30t4 -34q39 40 78 62.5t89 22.5q53 0 82.5 -22t42.5 -65q41 41 81.5 64t91.5 23q68 0 102.5 -40.5t34.5 -123.5v-328q0 -12 -11 -12h-95q-12 0 -12 12v308q0 41 -14.5 61.5t-47.5 20.5
q-28 0 -55.5 -16.5t-61.5 -48.5v-325q0 -12 -12 -12h-94q-12 0 -12 12v308q0 41 -15 61.5t-47 20.5q-28 0 -55.5 -16.5t-61.5 -48.5v-325q0 -12 -12 -12h-95z" />
    <glyph glyph-name="uni0443" unicode="&#x443;" horiz-adv-x="512" 
d="M143 -185q-14 0 -8 14l67 175l-183 474q-5 14 9 14h103q10 0 13 -10l72 -205q11 -31 21 -65.5t19 -69.5h2q10 35 20 69t21 66l72 205q3 10 13 10h100q15 0 10 -14l-245 -654q-4 -9 -13 -9h-93z" />
    <glyph glyph-name="uni045E" unicode="&#x45e;" horiz-adv-x="512" 
d="M143 -185q-14 0 -8 14l67 175l-183 474q-5 14 9 14h103q10 0 13 -10l72 -205q11 -31 21 -65.5t19 -69.5h2q10 35 20 69t21 66l72 205q3 10 13 10h100q15 0 10 -14l-245 -654q-4 -9 -13 -9h-93zM256 556q-34 0 -59 9.5t-42 21.5t-26 21q-4 4 -4 13v66q0 7 3.5 9.5
t9.5 -3.5q17 -15 47.5 -32.5t70.5 -17.5t70.5 17.5t46.5 32.5q6 6 9.5 3.5t3.5 -9.5v-66q0 -5 -1 -8.5t-4 -6.5q-9 -8 -25.5 -20t-41.5 -21t-58 -9z" />
    <glyph glyph-name="uni0444" unicode="&#x444;" horiz-adv-x="713" 
d="M286 -12q-114 0 -174.5 51t-60.5 150v114q0 100 60.5 150.5t174.5 50.5h141q115 0 175 -50.5t60 -150.5v-114q0 -99 -60 -150t-175 -51h-141zM282 86h149q57 0 85 27.5t28 84.5v96q0 59 -28 86t-85 27h-149q-56 0 -84.5 -27t-28.5 -86v-96q0 -57 28.5 -84.5t84.5 -27.5z
M310 -185q-12 0 -12 12v190l2 30v393l-2 37v195q0 12 12 12h93q12 0 12 -12v-197l-2 -38v-387l2 -31v-192q0 -12 -12 -12h-93z" />
    <glyph glyph-name="uni0445" unicode="&#x445;" horiz-adv-x="504" 
d="M18 0q-7 0 -9 4.5t2 9.5l168 239l-157 225q-4 6 -1.5 10t9.5 4h110q10 0 14 -7l55 -85q11 -17 22 -36t21 -36h1q11 19 23 38t23 38l53 80q4 8 14 8h106q7 0 9.5 -4t-1.5 -10l-157 -223l170 -241q4 -5 2 -9.5t-9 -4.5h-111q-9 0 -14 7l-53 80q-14 22 -28 45t-29 46h-1
q-13 -22 -27 -45.5t-28 -45.5l-53 -80q-4 -7 -14 -7h-110z" />
    <glyph glyph-name="uni0447" unicode="&#x447;" horiz-adv-x="527" 
d="M357 0q-12 0 -12 12v188q-35 -31 -76 -51.5t-89 -20.5q-64 0 -97.5 40t-33.5 118v194q0 12 12 12h94q12 0 12 -12v-165q0 -44 14.5 -65t44.5 -21q33 0 62.5 18t56.5 46v187q0 12 12 12h94q12 0 12 -12v-468q0 -12 -12 -12h-94z" />
    <glyph glyph-name="uni0446" unicode="&#x446;" horiz-adv-x="563" 
d="M452 -123q-5 0 -8.5 3.5t-3.5 8.5v111h-37l79 99h58q5 0 8 -3t3 -9v-198q0 -5 -3 -8.5t-8 -3.5h-88zM198 -12q-66 0 -100 41.5t-34 123.5v327q0 12 11 12h95q12 0 12 -12v-308q0 -42 14.5 -62t45.5 -20q33 0 66.5 21.5t75.5 64.5l4 -88q-29 -29 -58.5 -51.5t-62 -35.5
t-69.5 -13zM396 0q-12 0 -14 11q-3 18 -5.5 38t-3.5 40l-9 51v340q0 12 12 12h95q11 0 11 -12v-355q0 -29 1.5 -57.5t5.5 -55.5q2 -12 -12 -12h-81z" />
    <glyph glyph-name="uni0448" unicode="&#x448;" horiz-adv-x="828" 
d="M198 -12q-67 0 -100.5 41t-33.5 124v327q0 12 11 12h95q12 0 12 -12v-308q0 -41 13.5 -61.5t44.5 -20.5q27 0 54 17t61 49v324q0 12 12 12h95q11 0 11 -12v-308q0 -41 14 -61.5t44 -20.5q27 0 54.5 17t61.5 50v323q0 12 12 12h94q12 0 12 -12v-355q0 -29 1.5 -58t4.5 -54
q2 -13 -12 -13h-84q-10 0 -11 9q-3 14 -5 30.5t-4 33.5q-40 -39 -78.5 -62t-87.5 -23q-51 0 -79.5 22t-41.5 65q-41 -41 -81.5 -64t-88.5 -23z" />
    <glyph glyph-name="uni0449" unicode="&#x449;" horiz-adv-x="846" 
d="M735 -123q-5 0 -8.5 3.5t-3.5 8.5v111h-37l80 99h57q5 0 8.5 -3t3.5 -9v-198q0 -5 -3.5 -8.5t-8.5 -3.5h-88zM198 -12q-67 0 -100.5 41t-33.5 124v327q0 12 11 12h95q12 0 12 -12v-308q0 -41 13.5 -61.5t44.5 -20.5q27 0 54 17t61 49v324q0 12 12 12h95q11 0 11 -12v-308
q0 -41 14 -61.5t44 -20.5q27 0 54.5 17t61.5 50v323q0 12 12 12h94q12 0 12 -12v-355q0 -29 1.5 -58t4.5 -54q2 -13 -12 -13h-84q-10 0 -11 9q-3 14 -5 30.5t-4 33.5q-40 -39 -78.5 -62t-87.5 -23q-51 0 -79.5 22t-41.5 65q-41 -41 -81.5 -64t-88.5 -23z" />
    <glyph glyph-name="uni045F" unicode="&#x45f;" horiz-adv-x="546" 
d="M201 -123q-5 0 -8.5 3.5t-3.5 8.5v175l108 2v-177q0 -5 -3 -8.5t-8 -3.5h-85zM198 -12q-66 0 -100 41.5t-34 123.5v327q0 12 11 12h95q12 0 12 -12v-308q0 -42 14.5 -62t45.5 -20q33 0 66.5 21.5t75.5 64.5l4 -88q-29 -29 -58.5 -51.5t-62 -35.5t-69.5 -13zM396 0
q-12 0 -14 11q-3 18 -5.5 38t-3.5 40l-9 51v340q0 12 12 12h95q11 0 11 -12v-355q0 -29 1.5 -57.5t5.5 -55.5q2 -12 -12 -12h-81z" />
    <glyph glyph-name="uni044C" unicode="&#x44c;" horiz-adv-x="517" 
d="M261 -12q-100 0 -148.5 44.5t-48.5 144.5v303q0 12 11 12h95q12 0 12 -12v-315q0 -42 21.5 -62t62.5 -20q42 0 65 22t23 60v43q0 33 -16.5 50t-50.5 17t-63.5 -19t-53.5 -53l-2 92q32 36 71 56.5t89 20.5q69 0 107.5 -38.5t38.5 -116.5v-46q0 -91 -55.5 -137t-157.5 -46z
" />
    <glyph glyph-name="uni044A" unicode="&#x44a;" horiz-adv-x="587" 
d="M28 393q-11 0 -11 12v75q0 12 11 12h143v-99h-143zM331 -12q-100 0 -149 44.5t-49 144.5v303q0 12 12 12h95q11 0 11 -12v-315q0 -42 21.5 -62t63.5 -20q41 0 64.5 22t23.5 60v43q0 33 -16.5 50t-50.5 17q-35 0 -64 -19t-53 -53l-2 92q32 36 71 56.5t89 20.5
q69 0 107.5 -38.5t38.5 -116.5v-46q0 -91 -55.5 -137t-157.5 -46z" />
    <glyph glyph-name="uni044B" unicode="&#x44b;" horiz-adv-x="745" 
d="M261 -12q-100 0 -148.5 44.5t-48.5 144.5v303q0 12 11 12h95q12 0 12 -12v-315q0 -42 21.5 -62t62.5 -20q42 0 65 22t23 60v43q0 33 -16.5 50t-50.5 17t-63.5 -19t-53.5 -53l-2 92q32 36 71 56.5t89 20.5q69 0 107.5 -38.5t38.5 -116.5v-46q0 -91 -55.5 -137t-157.5 -46z
M575 0q-11 0 -11 12v468q0 12 11 12h95q12 0 12 -12v-468q0 -12 -12 -12h-95z" />
    <glyph glyph-name="uni0459" unicode="&#x459;" horiz-adv-x="752" 
d="M503 -12q-55 0 -90.5 12.5t-58 41t-36.5 76.5l-44 133q-9 30 -17.5 58t-16.5 58h-2q-7 -30 -15.5 -58.5t-18.5 -59.5l-76 -239q-3 -10 -13 -10h-102q-14 0 -9 14l166 465q5 13 17 13h105q13 0 17 -13l73 -202q39 49 84 72t97 23q69 0 107.5 -39t38.5 -116v-46
q0 -90 -54.5 -136.5t-151.5 -46.5zM505 83q39 0 61.5 22t22.5 60v43q0 33 -16.5 50t-49.5 17q-32 0 -61.5 -18t-54.5 -53l22 -61q13 -37 30 -48.5t46 -11.5z" />
    <glyph glyph-name="uni045A" unicode="&#x45a;" horiz-adv-x="819" 
d="M75 0q-11 0 -11 12v468q0 12 11 12h95q12 0 12 -12v-182h198v-99h-198v-187q0 -12 -12 -12h-95zM563 -12q-100 0 -148.5 44.5t-48.5 144.5v303q0 12 11 12h95q12 0 12 -12v-315q0 -42 21.5 -62t62.5 -20q42 0 65.5 22t23.5 60v43q0 33 -17 50t-51 17t-63.5 -19t-53.5 -53
l-1 92q31 36 70 56.5t89 20.5q69 0 107.5 -38.5t38.5 -116.5v-46q0 -91 -55.5 -137t-157.5 -46z" />
    <glyph glyph-name="uni0455" unicode="&#x455;" horiz-adv-x="471" 
d="M235 -12q-99 0 -145.5 39t-43.5 121q0 11 12 11h90q10 0 10 -11q0 -36 19 -53t58 -17q41 0 61 13t20 40q0 19 -13 32.5t-42 25.5l-114 48q-52 22 -74.5 52t-22.5 78q0 68 44.5 102.5t137.5 34.5q95 0 143 -36t48 -105q0 -11 -12 -11h-90q-12 0 -12 16q0 22 -19 34.5
t-53 12.5q-35 0 -52 -12t-17 -36q0 -18 10.5 -28t41.5 -23l114 -48q53 -22 76.5 -52.5t23.5 -79.5q0 -73 -51 -110.5t-148 -37.5z" />
    <glyph glyph-name="uni0454" unicode="&#x454;" horiz-adv-x="523" 
d="M264 -12q-105 0 -159 49t-54 145v135q0 92 53.5 139.5t156.5 47.5q70 0 117 -20t70 -53.5t19 -75.5q-1 -17 -13 -17h-90q-11 0 -11 14q0 23 -23.5 36.5t-64.5 13.5q-48 0 -72 -21t-24 -66v-32h171q10 0 10 -10v-50q0 -10 -10 -10h-171v-35q0 -47 23.5 -67.5t74.5 -20.5
q45 0 68 14t23 36q0 15 11 15h90q12 0 14 -17q5 -44 -18 -77.5t-71 -53t-120 -19.5z" />
    <glyph glyph-name="uni044D" unicode="&#x44d;" horiz-adv-x="517" 
d="M255 -12q-71 0 -119.5 19.5t-72 53t-19.5 77.5q2 17 14 17h90q11 0 11 -15q0 -24 23.5 -37t67.5 -13q53 0 75.5 20.5t22.5 67.5v35h-171q-10 0 -10 10v50q0 10 10 10h171v32q0 46 -22.5 66.5t-72.5 20.5q-42 0 -65.5 -13.5t-23.5 -36.5q0 -14 -11 -14h-90q-12 0 -13 17
q-4 42 19.5 75.5t71.5 53.5t118 20q103 0 155 -47.5t52 -139.5v-135q0 -96 -52.5 -145t-158.5 -49z" />
    <glyph glyph-name="uni0456" unicode="&#x456;" horiz-adv-x="245" 
d="M75 0q-11 0 -11 12v468q0 12 11 12h95q12 0 12 -12v-468q0 -12 -12 -12h-95zM123 563q-34 0 -51.5 18t-17.5 46v15q0 29 17.5 46.5t51.5 17.5t51 -17.5t17 -46.5v-15q0 -28 -17 -46t-51 -18z" />
    <glyph glyph-name="uni0457" unicode="&#x457;" horiz-adv-x="245" 
d="M75 0q-11 0 -11 12v468q0 12 11 12h95q12 0 12 -12v-468q0 -12 -12 -12h-95zM28 564q-32 0 -47.5 16.5t-15.5 42.5v14q0 28 15.5 44t47.5 16q33 0 48.5 -16t15.5 -44v-14q0 -26 -15.5 -42.5t-48.5 -16.5zM216 564q-32 0 -48 16.5t-16 42.5v14q0 28 16 44t48 16t47.5 -16
t15.5 -44v-14q0 -26 -15.5 -42.5t-47.5 -16.5z" />
    <glyph glyph-name="uni0458" unicode="&#x458;" horiz-adv-x="246" 
d="M56 -191q-9 -5 -15 3l-57 67q-3 5 -2.5 9t5.5 8q25 17 42 42.5t26 59.5t9 78v404q0 6 3.5 9t7.5 3h95q5 0 8.5 -3t3.5 -9v-406q0 -65 -13 -114t-40.5 -86t-72.5 -65zM124 563q-34 0 -51.5 18t-17.5 46v15q0 29 17.5 46.5t51.5 17.5t51 -17.5t17 -46.5v-15q0 -28 -17 -46
t-51 -18z" />
    <glyph glyph-name="uni045B" unicode="&#x45b;" horiz-adv-x="562" 
d="M7 551q-12 0 -12 12v58q0 12 12 12h269q12 0 12 -12v-58q0 -12 -12 -12h-209h-60zM392 0q-12 0 -12 12v308q0 42 -16.5 62t-51.5 20t-70.5 -21.5t-72.5 -62.5l-5 88q29 30 58 52t61 34t70 12q72 0 108.5 -40.5t36.5 -124.5v-327q0 -12 -11 -12h-95zM79 0q-12 0 -12 12
v659q0 12 12 12h94q12 0 12 -12v-659q0 -12 -12 -12h-94z" />
    <glyph glyph-name="uni044E" unicode="&#x44e;" horiz-adv-x="745" 
d="M64 409v262q0 12 11 12h95q12 0 12 -12v-262h-118zM480 -12q-102 0 -158 52t-56 150v112q0 99 56 150.5t158 51.5t158 -51.5t56 -150.5v-112q0 -98 -56 -150t-158 -52zM75 0q-11 0 -11 12v468q0 12 11 12h95q12 0 12 -12v-183h130v-97h-130v-188q0 -12 -12 -12h-95z
M480 90q49 0 72.5 27.5t23.5 83.5v90q0 56 -23.5 83.5t-72.5 27.5q-48 0 -72 -27.5t-24 -83.5v-90q0 -56 24 -83.5t72 -27.5z" />
    <glyph glyph-name="uni044F" unicode="&#x44f;" horiz-adv-x="519" 
d="M36 0q-7 0 -9 4t1 10l69 105q12 19 24.5 37t25.5 36v2q-49 15 -73 49.5t-24 88.5q0 52 20.5 87.5t63 54t105.5 18.5h204q12 0 12 -12v-468q0 -12 -12 -12h-94q-12 0 -12 12v164h-77l-103 -168q-5 -8 -15 -8h-106zM254 263h83v136h-93q-45 0 -62 -18t-17 -51
q0 -36 22 -51.5t67 -15.5z" />
    <glyph glyph-name="uni0452" unicode="&#x452;" horiz-adv-x="563" 
d="M372 -191q-8 -5 -14 3l-57 67q-3 5 -2.5 9t5.5 8q25 17 42 42t25.5 59.5t8.5 78.5v244q0 42 -16.5 62t-51.5 20q-31 0 -62 -17t-65 -50v-323q0 -12 -12 -12h-94q-12 0 -12 12v539h-60q-12 0 -12 12v58q0 12 12 12h60v38q0 12 12 12h94q12 0 12 -12v-38h92q12 0 12 -12
v-58q0 -12 -12 -12h-92v-124q39 38 79.5 57.5t88.5 19.5q72 0 108.5 -40.5t36.5 -124.5v-265q0 -65 -12.5 -114t-40 -86t-73.5 -65z" />
    <glyph glyph-name="uni04CF" unicode="&#x4cf;" horiz-adv-x="245" 
d="M75 0q-11 0 -11 12v659q0 12 11 12h95q12 0 12 -12v-659q0 -12 -12 -12h-95z" />
    <glyph glyph-name="uni04E3" unicode="&#x4e3;" horiz-adv-x="546" 
d="M198 -12q-66 0 -100 41.5t-34 123.5v327q0 12 11 12h95q12 0 12 -12v-308q0 -42 14.5 -62t45.5 -20q33 0 66.5 21.5t75.5 64.5l4 -88q-29 -29 -58.5 -51.5t-62 -35.5t-69.5 -13zM396 0q-12 0 -14 11q-3 18 -5.5 38t-3.5 40l-9 51v340q0 12 12 12h95q11 0 11 -12v-355
q0 -29 1.5 -57.5t5.5 -55.5q2 -12 -12 -12h-81zM168 570q-12 0 -12 12v66q0 11 12 11h209q12 0 12 -11v-66q0 -12 -12 -12h-209z" />
    <glyph glyph-name="uni04EF" unicode="&#x4ef;" horiz-adv-x="512" 
d="M143 -185q-14 0 -8 14l67 175l-183 474q-5 14 9 14h103q10 0 13 -10l72 -205q11 -31 21 -65.5t19 -69.5h2q10 35 20 69t21 66l72 205q3 10 13 10h100q15 0 10 -14l-245 -654q-4 -9 -13 -9h-93zM151 570q-12 0 -12 12v66q0 11 12 11h209q12 0 12 -11v-66q0 -12 -12 -12
h-209z" />
    <glyph glyph-name="uni0432.loclRUS" horiz-adv-x="500" 
d="M75 0q-11 0 -11 12v468q0 12 11 12h193q89 0 133 -30t44 -90q0 -41 -17.5 -70t-59.5 -41v-2q44 -9 70 -38t26 -72q0 -53 -19 -85.5t-62 -48t-114 -15.5h-194zM179 90h95q41 0 58 16.5t17 46.5q0 28 -18 43.5t-56 15.5h-96v-122zM179 292h90q38 0 51 16t13 43q0 24 -14 37
t-53 13h-87v-109z" />
    <glyph glyph-name="uni0433.loclRUS" horiz-adv-x="387" 
d="M75 0q-11 0 -11 12v468q0 12 11 12h284q12 0 12 -12v-75q0 -12 -12 -12h-177v-381q0 -12 -12 -12h-95z" />
    <glyph glyph-name="uni0453.loclRUS" horiz-adv-x="387" 
d="M75 0q-11 0 -11 12v468q0 12 11 12h284q12 0 12 -12v-75q0 -12 -12 -12h-177v-381q0 -12 -12 -12h-95zM152 557q-13 0 -7 12l68 125q5 9 15 9h90q6 0 7.5 -4.5t-2.5 -8.5l-90 -126q-4 -7 -13 -7h-68z" />
    <glyph glyph-name="uni0491.loclRUS" horiz-adv-x="388" 
d="M75 0q-11 0 -11 12v468q0 12 11 12h184v119q0 5 3.5 8.5t8.5 3.5h89q5 0 8.5 -3.5t3.5 -8.5v-206q0 -12 -12 -12h-178v-381q0 -12 -12 -12h-95z" />
    <glyph glyph-name="uni0434.loclRUS" horiz-adv-x="541" 
d="M353 32v361h-137l-16 -194q-4 -52 -17 -84t-34 -49t-51 -26l-56 53q15 2 23 9.5t13 26.5t7 53l23 298q1 12 13 12h338q12 0 12 -12v-448h-118zM123 0l-78 99h406l-35 -99h-293zM430 -123q-5 0 -8.5 3.5t-3.5 8.5v111h-37l80 99h57q5 0 8.5 -3t3.5 -9v-198q0 -5 -3.5 -8.5
t-8.5 -3.5h-88zM108 -123h-88q-5 0 -8.5 3.5t-3.5 8.5v198q0 6 3.5 9t8.5 3h57l80 -99h-37v-111q0 -5 -3.5 -8.5t-8.5 -3.5z" />
    <glyph glyph-name="uni0436.loclRUS" horiz-adv-x="745" 
d="M23 0q-7 0 -9 4.5t2 9.5l144 254l-129 210q-3 6 -1.5 10t8.5 4h107q10 0 14 -7l100 -179h55v174q0 12 12 12h93q12 0 12 -12v-174h55l101 179q4 7 14 7h105q8 0 9.5 -4t-2.5 -10l-128 -210l144 -254q3 -5 1 -9.5t-9 -4.5h-109q-9 0 -14 7l-111 206h-56v-201
q0 -12 -12 -12h-93q-12 0 -12 12v201h-58l-112 -206q-4 -7 -14 -7h-107z" />
    <glyph glyph-name="uni0437.loclRUS" horiz-adv-x="502" 
d="M241 -12q-110 0 -161 36t-42 104q3 17 14 17h87q11 0 11 -14q0 -26 23 -38t68 -12q56 0 77 16.5t21 50.5q0 30 -22.5 44t-65.5 14h-77q-12 0 -12 12v59q0 12 12 12h58q54 0 76 16.5t22 48.5q0 25 -20 41t-66 16q-43 0 -64.5 -13.5t-21.5 -38.5q0 -15 -11 -15h-87
q-13 0 -14 17q-4 65 46.5 104t157.5 39q97 0 144 -33t47 -101q0 -46 -24 -76.5t-56 -40.5v-2q42 -8 67.5 -36t25.5 -70q0 -79 -53.5 -118t-159.5 -39z" />
    <glyph glyph-name="uni0438.loclRUS" horiz-adv-x="547" 
d="M75 0q-11 0 -11 12v468q0 12 11 12h89q12 0 12 -12v-206q0 -30 -3 -60.5t-6 -60.5h3q15 28 30 55t31 55l138 220q5 9 15 9h88q12 0 12 -12v-468q0 -12 -12 -12h-89q-12 0 -12 12v200q0 30 3 60.5t6 60.5h-2q-14 -25 -29 -50t-29 -50l-142 -226q-3 -7 -12 -7h-91z" />
    <glyph glyph-name="uni0439.loclRUS" horiz-adv-x="547" 
d="M75 0q-11 0 -11 12v468q0 12 11 12h89q12 0 12 -12v-206q0 -30 -3 -60.5t-6 -60.5h3q15 28 30 55t31 55l138 220q5 9 15 9h88q12 0 12 -12v-468q0 -12 -12 -12h-89q-12 0 -12 12v200q0 30 3 60.5t6 60.5h-2q-14 -25 -29 -50t-29 -50l-142 -226q-3 -7 -12 -7h-91zM274 556
q-34 0 -59 9.5t-42 21.5t-26 21q-4 4 -4 13v66q0 7 3.5 9.5t9.5 -3.5q17 -15 47.5 -32.5t70.5 -17.5t70.5 17.5t46.5 32.5q6 6 9.5 3.5t3.5 -9.5v-66q0 -5 -1 -8.5t-4 -6.5q-9 -8 -25.5 -20t-41.5 -21t-58 -9z" />
    <glyph glyph-name="uni045D.loclRUS" horiz-adv-x="547" 
d="M75 0q-11 0 -11 12v468q0 12 11 12h89q12 0 12 -12v-206q0 -30 -3 -60.5t-6 -60.5h3q15 28 30 55t31 55l138 220q5 9 15 9h88q12 0 12 -12v-468q0 -12 -12 -12h-89q-12 0 -12 12v200q0 30 3 60.5t6 60.5h-2q-14 -25 -29 -50t-29 -50l-142 -226q-3 -7 -12 -7h-91zM268 557
q-8 0 -13 7l-90 126q-3 4 -1.5 8.5t7.5 4.5h90q10 0 14 -9l68 -125q6 -12 -6 -12h-69z" />
    <glyph glyph-name="uni043A.loclRUS" horiz-adv-x="512" 
d="M75 0q-11 0 -11 12v468q0 12 11 12h95q12 0 12 -12v-172h58l122 177q5 7 14 7h109q7 0 9 -4t-2 -10l-151 -210l166 -254q4 -5 2 -9.5t-9 -4.5h-113q-9 0 -14 7l-133 205h-58v-200q0 -12 -12 -12h-95z" />
    <glyph glyph-name="uni045C.loclRUS" horiz-adv-x="512" 
d="M75 0q-11 0 -11 12v468q0 12 11 12h95q12 0 12 -12v-172h58l122 177q5 7 14 7h109q7 0 9 -4t-2 -10l-151 -210l166 -254q4 -5 2 -9.5t-9 -4.5h-113q-9 0 -14 7l-133 205h-58v-200q0 -12 -12 -12h-95zM185 557q-13 0 -7 12l68 125q5 9 15 9h90q6 0 7.5 -4.5t-2.5 -8.5
l-90 -126q-4 -7 -13 -7h-68z" />
    <glyph glyph-name="uni043B.loclRUS" horiz-adv-x="523" 
d="M48 -12q-21 0 -41 4q-10 2 -10 13v73q0 12 11 10q7 -1 13 -1h11q23 0 34 20t15 79l24 294q1 12 12 12h331q12 0 12 -12v-468q0 -12 -12 -12h-95q-11 0 -11 12v381h-132l-18 -224q-7 -98 -40 -139.5t-104 -41.5z" />
    <glyph glyph-name="uni043F.loclRUS" horiz-adv-x="545" 
d="M75 0q-11 0 -11 12v468q0 12 11 12h395q11 0 11 -12v-468q0 -12 -11 -12h-95q-12 0 -12 12v381h-181v-381q0 -12 -12 -12h-95z" />
    <glyph glyph-name="uni0442.loclRUS" horiz-adv-x="445" 
d="M176 0q-12 0 -12 12v381h-136q-11 0 -11 12v75q0 12 11 12h389q12 0 12 -12v-75q0 -12 -12 -12h-135v-381q0 -12 -12 -12h-94z" />
    <glyph glyph-name="uni0446.loclRUS" horiz-adv-x="558" 
d="M75 0q-11 0 -11 12v468q0 12 11 12h95q12 0 12 -12v-381h177v381q0 12 12 12h95q11 0 11 -12v-468q0 -12 -11 -12h-391zM447 -123q-5 0 -8.5 3.5t-3.5 8.5v111h-37l79 99h57q6 0 9 -3t3 -9v-198q0 -5 -3 -8.5t-9 -3.5h-87z" />
    <glyph glyph-name="uni0448.loclRUS" horiz-adv-x="799" 
d="M75 0q-11 0 -11 12v468q0 12 11 12h95q12 0 12 -12v-381h158v381q0 12 12 12h95q11 0 11 -12v-381h159v381q0 12 12 12h95q11 0 11 -12v-468q0 -12 -11 -12h-649z" />
    <glyph glyph-name="uni0449.loclRUS" horiz-adv-x="816" 
d="M705 -123q-5 0 -8.5 3.5t-3.5 8.5v111h-37l79 99h58q5 0 8 -3t3 -9v-198q0 -5 -3 -8.5t-8 -3.5h-88zM75 0q-11 0 -11 12v468q0 12 11 12h95q12 0 12 -12v-381h158v381q0 12 12 12h95q11 0 11 -12v-381h159v381q0 12 12 12h95q11 0 11 -12v-468q0 -12 -11 -12h-649z" />
    <glyph glyph-name="uni045F.loclRUS" horiz-adv-x="541" 
d="M226 -123q-5 0 -8.5 3.5t-3.5 8.5v111h-139q-11 0 -11 12v468q0 12 11 12h95q12 0 12 -12v-381h177v381q0 12 12 12h95q11 0 11 -12v-468q0 -12 -11 -12h-140v-111q0 -5 -3 -8.5t-8 -3.5h-89z" />
    <glyph glyph-name="uni044C.loclRUS" horiz-adv-x="501" 
d="M75 0q-11 0 -11 12v468q0 12 11 12h95q12 0 12 -12v-142h80q96 0 145.5 -40.5t49.5 -119.5q0 -88 -51 -133t-148 -45h-183zM182 96h74q46 0 66.5 20t20.5 60q0 36 -23 53t-68 17h-70v-150z" />
    <glyph glyph-name="uni044A.loclRUS" horiz-adv-x="571" 
d="M28 393q-11 0 -11 12v75q0 12 11 12h147v-99h-147zM145 0q-12 0 -12 12v468q0 12 12 12h95q11 0 11 -12v-142h81q96 0 145.5 -40.5t49.5 -119.5q0 -88 -51 -133t-148 -45h-183zM251 96h75q46 0 66.5 20t20.5 60q0 36 -23 53t-68 17h-71v-150z" />
    <glyph glyph-name="uni044B.loclRUS" horiz-adv-x="732" 
d="M75 0q-11 0 -11 12v468q0 12 11 12h95q12 0 12 -12v-142h80q96 0 145.5 -40.5t49.5 -119.5q0 -88 -51 -133t-148 -45h-183zM182 96h74q46 0 66.5 20t20.5 60q0 36 -23 53t-68 17h-70v-150zM562 0q-11 0 -11 12v468q0 12 11 12h95q12 0 12 -12v-468q0 -12 -12 -12h-95z
" />
    <glyph glyph-name="uni0459.loclRUS" horiz-adv-x="776" 
d="M48 -12q-21 0 -41 4q-10 2 -10 13v69q0 13 11 11q6 -1 12 -1h12q25 0 35.5 21.5t14.5 76.5l24 298q1 12 12 12h330q12 0 12 -12v-151h77q102 0 148.5 -40t46.5 -119q0 -80 -50.5 -125t-146.5 -45h-182q-11 0 -11 12v381h-132l-18 -224q-7 -101 -41 -141t-103 -40zM460 96
h71q41 0 63.5 18.5t22.5 55.5q0 36 -20.5 52t-69.5 16h-67v-142z" />
    <glyph glyph-name="uni045A.loclRUS" horiz-adv-x="797" 
d="M69 0q-12 0 -12 12v468q0 12 12 12h94q12 0 12 -12v-153h184v153q0 12 12 12h95q11 0 11 -12v-153h81q102 0 148.5 -40t46.5 -116q0 -81 -50.5 -126t-146.5 -45h-185q-12 0 -12 12v217h-184v-217q0 -12 -12 -12h-94zM477 96h75q41 0 64 18.5t23 55.5q0 35 -21 50t-70 15
h-71v-139z" />
    <glyph glyph-name="uni044E.loclRUS" horiz-adv-x="739" 
d="M474 -12q-102 0 -158 52t-56 150v112q0 99 56 150.5t158 51.5t158 -51.5t56 -150.5v-112q0 -98 -56 -150t-158 -52zM69 0q-12 0 -12 12v468q0 12 12 12h94q12 0 12 -12v-183h131v-97h-131v-188q0 -12 -12 -12h-94zM474 90q49 0 72.5 27.5t23.5 83.5v90q0 56 -23.5 83.5
t-72.5 27.5q-48 0 -72 -27.5t-24 -83.5v-90q0 -56 24 -83.5t72 -27.5z" />
    <glyph glyph-name="uni04E3.loclRUS" horiz-adv-x="547" 
d="M75 0q-11 0 -11 12v468q0 12 11 12h89q12 0 12 -12v-206q0 -30 -3 -60.5t-6 -60.5h3q15 28 30 55t31 55l138 220q5 9 15 9h88q12 0 12 -12v-468q0 -12 -12 -12h-89q-12 0 -12 12v200q0 30 3 60.5t6 60.5h-2q-14 -25 -29 -50t-29 -50l-142 -226q-3 -7 -12 -7h-91zM169 570
q-12 0 -12 12v66q0 11 12 11h209q12 0 12 -11v-66q0 -12 -12 -12h-209z" />
    <glyph glyph-name="uni0430.sc" horiz-adv-x="529" 
d="M9 0q-12 0 -8 11l187 522q4 8 13 8h125q9 0 13 -8l189 -521q4 -12 -8 -12h-104q-8 0 -12 8l-106 315q-10 32 -19 61.5t-16 59.5h-2q-7 -30 -15.5 -59t-18.5 -61l-103 -315q-3 -9 -12 -9h-103zM138 106l21 94h206l22 -94h-249z" />
    <glyph glyph-name="uni0431.sc" horiz-adv-x="530" 
d="M78 0q-11 0 -11 11v519q0 11 11 11h337q10 0 10 -11v-75q0 -10 -10 -10h-234v-104h92q109 0 161.5 -39.5t52.5 -123.5q0 -91 -54 -134.5t-167 -43.5h-188zM181 95h79q57 0 83.5 20t26.5 64q0 41 -24.5 58t-81.5 17h-83v-159z" />
    <glyph glyph-name="uni0432.sc" horiz-adv-x="531" 
d="M78 0q-11 0 -11 11v519q0 11 11 11h183q106 0 157.5 -33.5t51.5 -98.5q0 -48 -21.5 -77t-70.5 -44v-2q58 -10 87 -43t29 -87q0 -82 -55.5 -119t-177.5 -37h-183zM183 94h83q61 0 86 17t25 55q0 37 -26.5 54t-85.5 17h-82v-143zM183 319h76q51 0 73 16t22 51
q0 31 -22.5 46t-77.5 15h-71v-128z" />
    <glyph glyph-name="uni0433.sc" horiz-adv-x="421" 
d="M78 0q-11 0 -11 11v519q0 11 11 11h314q11 0 11 -11v-77q0 -10 -11 -10h-209v-432q0 -11 -11 -11h-94z" />
    <glyph glyph-name="uni0453.sc" horiz-adv-x="421" 
d="M78 0q-11 0 -11 11v519q0 11 11 11h314q11 0 11 -11v-77q0 -10 -11 -10h-209v-432q0 -11 -11 -11h-94zM178 594q-15 0 -8 14l58 106q5 8 14 8h82q7 0 8.5 -4t-2.5 -10l-79 -107q-5 -7 -14 -7h-59z" />
    <glyph glyph-name="uni0491.sc" horiz-adv-x="421" 
d="M290 458v194q0 10 11 10h91q11 0 11 -10v-194h-113zM78 0q-11 0 -11 11v519q0 11 11 11h314q11 0 11 -11v-77q0 -10 -11 -10h-209v-432q0 -11 -11 -11h-94z" />
    <glyph glyph-name="uni0434.sc" horiz-adv-x="600" 
d="M53 36l170 497q4 8 13 8h125q9 0 13 -8l172 -497h-124l-93 292q-8 29 -15.5 57.5t-15.5 56.5h-1q-8 -28 -15.5 -56t-15.5 -57l-89 -293h-124zM26 -129q-4 0 -7.5 3t-3.5 7v207q0 5 3.5 8t7.5 3h548q5 0 8 -3t3 -8v-207q0 -10 -11 -10h-92q-5 0 -8 3t-3 7v119h-342v-119
q0 -4 -3 -7t-8 -3h-92z" />
    <glyph glyph-name="uni0435.sc" horiz-adv-x="483" 
d="M78 0q-11 0 -11 11v519q0 11 11 11h342q10 0 10 -11v-76q0 -11 -10 -11h-237v-122h216q10 0 10 -11v-72q0 -10 -10 -10h-216v-130h237q10 0 10 -10v-77q0 -11 -10 -11h-342z" />
    <glyph glyph-name="uni0451.sc" horiz-adv-x="483" 
d="M78 0q-11 0 -11 11v519q0 11 11 11h342q10 0 10 -11v-76q0 -11 -10 -11h-237v-122h216q10 0 10 -11v-72q0 -10 -10 -10h-216v-130h237q10 0 10 -10v-77q0 -11 -10 -11h-342zM154 606q-32 0 -47.5 16.5t-15.5 43.5v14q0 28 15.5 43.5t47.5 15.5q33 0 48.5 -15.5
t15.5 -43.5v-14q0 -27 -15.5 -43.5t-48.5 -16.5zM341 606q-32 0 -47.5 16.5t-15.5 43.5v14q0 28 15.5 43.5t47.5 15.5t47.5 -15.5t15.5 -43.5v-14q0 -27 -15.5 -43.5t-47.5 -16.5z" />
    </font>
</defs>
</svg>
